[4K电影] 明日之战(内嵌中字)/ The Tomorrow War (2021) 4K高清下载/14.94GB

  [复制链接]

696

主题

737

帖子

6430

积分

超级版主

Rank: 8Rank: 8

积分
6430
 楼主| 发表于 2021-7-2 09:57:44 | 显示全部楼层 |阅读模式
本帖最后由 最爱4K哟 于 2021-7-3 15:22 编辑

QQ图片20210702094929_副本_meitu_1.jpg

◎译  名 明日之战 / 幽灵征募 / 幽灵分遣队 / Ghost Draft
◎片  名 The Tomorrow War
◎年  代 2021
◎产  地 美国
◎类  别 动作 / 科幻
◎语  言 英语
◎上映日期 2021-07-02(美国网络)
◎IMDb评分  0/10 from 0 users
◎IMDb链接  https://www.imdb.com/title/tt9777666/
◎豆瓣评分 0/10 from 0 users
◎豆瓣链接 https://movie.douban.com/subject/30459571/
◎片  长 94分钟
◎导  演 克里斯·麦凯
◎编  剧   扎克·迪恩
◎主  演 克里斯·帕拉特                                                                           
                   伊冯娜·斯特拉霍夫斯基
                   J·K·西蒙斯
                   艾德文·霍德吉
                   山姆·理查森
                   贝蒂·吉尔平
                   贾思敏·马修斯
                   玛丽·莱恩·莱杰斯库
                   赖恩·基拉·阿姆斯特朗
                   凯斯·鲍尔斯
                   赛切儿·加布埃尔
                   菲丽莎·特雷尔
                   梅利莎·圣阿曼德
                   加里·维克斯
                   大卫·马尔登那多
                   马修·康威尔
                   埃里克·格里斯
                   罗伯特·廷斯利
                   安德里娅·安德拉德
                   帕特里克·马龙
                   施奎塔·詹姆斯
                   吉姆·帕尔默
                   雷德·戴利
                   亚历克西斯·拉奥特
                   梅根·劳利斯
                   克拉克·萨鲁洛
                   肯尼斯·以色列
                   小佩里·祖鲁
                   肖恩·雷卡特尔
                   Rodney L. James
                   Chibuikem Uche
                   Mike Mitchell
                   Alan Trong



◎简  介


         克里斯·帕拉特商谈主演科幻影片[幽灵征募](Ghost Draft,暂译),克里斯·麦凯([乐高大电影])执导,扎克·迪恩([陷阱])操刀剧本。故事讲述一对父子被征募到一场未来战争中,这场战争决定着人类的命运。天空之舞(Skydance)出资制作。
Video
ID : 1
Format : HEVC
Format/Info : High Efficiency Video Coding
Format profile : Main 10@L5@Main
HDR format : SMPTE ST 2094 App 4, Version 1, HDR10+ Profile B compatible
Codec ID : V_MPEGH/ISO/HEVC
Duration : 2 h 18 min
Bit rate : 14.4 Mb/s
Width : 3 840 pixels
Height : 1 600 pixels
Display aspect ratio : 2.40:1
Frame rate mode : Constant
Frame rate : 23.976 (24000/1001) FPS
Color space : YUV
Chroma subsampling : 4:2:0
Bit depth : 10 bits
Bits/(Pixel*Frame) : 0.098
Stream size : 13.9 GiB (94%)
Default : Yes
Forced : No
Color range : Limited
Color primaries : BT.2020
Transfer characteristics : PQ
Matrix coefficients : BT.2020 non-constant
Mastering display color primaries : Display P3
Mastering display luminance : min: 0.0001 cd/m2, max: 1000 cd/m2
Maximum Content Light Level : 956 cd/m2
Maximum Frame-Average Light Level : 570 cd/m2

Audio
ID : 2
Format : E-AC-3
Format/Info : Enhanced AC-3
Commercial name : Dolby Digital Plus
Codec ID : A_EAC3
Duration : 2 h 18 min
Bit rate mode : Constant
Bit rate : 640 kb/s
Channel(s) : 6 channels
Channel layout : L R C LFE Ls Rs
Sampling rate : 48.0 kHz
Frame rate : 31.250 FPS (1536 SPF)
Compression mode : Lossy
Stream size : 632 MiB (4%)
Language : English
Service kind : Complete Main
Default : Yes
Forced : No

Text #1
ID : 3
Format : UTF-8
Codec ID : S_TEXT/UTF8
Codec ID/Info : UTF-8 Plain Text
Title : English
Language : English
Default : No
Forced : No

Text #2
ID : 4
Format : UTF-8
Codec ID : S_TEXT/UTF8
Codec ID/Info : UTF-8 Plain Text
Title : Arabic
Language : Arabic
Default : No
Forced : No

Text #3
ID : 5
Format : UTF-8
Codec ID : S_TEXT/UTF8
Codec ID/Info : UTF-8 Plain Text
Title : Chinese Simplified
Language : Chinese
Default : No
Forced : No

Text #4
ID : 6
Format : UTF-8
Codec ID : S_TEXT/UTF8
Codec ID/Info : UTF-8 Plain Text
Title : Chinese Traditional
Language : Chinese
Default : No
Forced : No


Text #5
ID : 7
Format : UTF-8
Codec ID : S_TEXT/UTF8
Codec ID/Info : UTF-8 Plain Text
Title : Czech (Czechia)
Language : Czech
Default : No
Forced : No

Text #6
ID : 8
Format : UTF-8
Codec ID : S_TEXT/UTF8
Codec ID/Info : UTF-8 Plain Text
Title : Danish
Language : Danish
Default : No
Forced : No

Text #7
ID : 9
Format : UTF-8
Codec ID : S_TEXT/UTF8
Codec ID/Info : UTF-8 Plain Text
Title : Dutch
Language : Dutch
Default : No
Forced : No

Text #8
ID : 10
Format : UTF-8
Codec ID : S_TEXT/UTF8
Codec ID/Info : UTF-8 Plain Text
Title : European Spanish
Language : Spanish
Default : No
Forced : No

Text #9
ID : 11
Format : UTF-8
Codec ID : S_TEXT/UTF8
Codec ID/Info : UTF-8 Plain Text
Title : Filipino
Language : fil
Default : No
Forced : No

Text #10
ID : 12
Format : UTF-8
Codec ID : S_TEXT/UTF8
Codec ID/Info : UTF-8 Plain Text
Title : Finnish
Language : Finnish
Default : No
Forced : No

Text #11
ID : 13
Format : UTF-8
Codec ID : S_TEXT/UTF8
Codec ID/Info : UTF-8 Plain Text
Title : French
Language : French
Default : No
Forced : No

Text #12
ID : 14
Format : UTF-8
Codec ID : S_TEXT/UTF8
Codec ID/Info : UTF-8 Plain Text
Title : French Canadian
Language : French
Default : No
Forced : No

Text #13
ID : 15
Format : UTF-8
Codec ID : S_TEXT/UTF8
Codec ID/Info : UTF-8 Plain Text
Title : German
Language : German
Default : No
Forced : No

Text #14
ID : 16
Format : UTF-8
Codec ID : S_TEXT/UTF8
Codec ID/Info : UTF-8 Plain Text
Title : Greek (Modern)
Language : Greek
Default : No
Forced : No

Text #15
ID : 17
Format : UTF-8
Codec ID : S_TEXT/UTF8
Codec ID/Info : UTF-8 Plain Text
Title : Hebrew
Language : Hebrew
Default : No
Forced : No

Text #16
ID : 18
Format : UTF-8
Codec ID : S_TEXT/UTF8
Codec ID/Info : UTF-8 Plain Text
Title : Hindi
Language : Hindi
Default : No
Forced : No

迅雷下载资源速度为零,资源敏感和谐时,推荐使用qBittorrent等下载软件,有条件的推荐115更好的下载软件!


游客,如果您要查看本帖隐藏内容请回复

游客,如果您要查看本帖隐藏内容请回复

游客,如果您要查看本帖隐藏内容请回复

游客,如果您要查看本帖隐藏内容请回复



.






回复

使用道具 举报

3

主题

1210

帖子

3648

积分

4K家园VIP

Rank: 9Rank: 9Rank: 9

积分
3648
发表于 2021-7-2 09:57:50 来自手机 | 显示全部楼层
在撸一遍。。。
回复 支持 反对

使用道具 举报

1

主题

1233

帖子

3583

积分

4K家园VIP

Rank: 9Rank: 9Rank: 9

积分
3583
发表于 2021-7-2 09:57:50 | 显示全部楼层
体验下4K版的
回复 支持 反对

使用道具 举报

0

主题

3

帖子

27

积分

新手上路

Rank: 1

积分
27
发表于 2021-7-2 11:17:16 | 显示全部楼层
感谢楼主....
回复

使用道具 举报

0

主题

1

帖子

6

积分

新手上路

Rank: 1

积分
6
发表于 2021-7-2 12:12:48 | 显示全部楼层
感谢感谢!!
回复

使用道具 举报

0

主题

9

帖子

45

积分

新手上路

Rank: 1

积分
45
发表于 2021-7-2 15:32:04 | 显示全部楼层
回复

使用道具 举报

0

主题

2

帖子

27

积分

4K家园VIP

Rank: 9Rank: 9Rank: 9

积分
27
发表于 2021-7-2 16:13:47 来自手机 | 显示全部楼层
感谢楼主分享,支持你
回复 支持 反对

使用道具 举报

0

主题

2

帖子

22

积分

新手上路

Rank: 1

积分
22
发表于 2021-7-2 17:22:23 | 显示全部楼层
体验下4K版的
回复 支持 反对

使用道具 举报

0

主题

4

帖子

27

积分

新手上路

Rank: 1

积分
27
发表于 2021-7-2 19:22:15 | 显示全部楼层
看完的感觉怎么样啊
回复 支持 反对

使用道具 举报

0

主题

3

帖子

12

积分

新手上路

Rank: 1

积分
12
发表于 2021-7-2 19:52:21 | 显示全部楼层
XXFXXFX谢谢分享
回复 支持 反对

使用道具 举报

您需要登录后才可以回帖 登录 | 立即注册

本版积分规则

精彩图文
Archiver|手机版|TAG|Sitemap|新帖|专题|联系我们:邮箱: 4kjia.com@gmail.com   

4k家园   ©2019