2021 Majors -星光下的舞姿(收藏版) 4K [2160P/MP4/1.12GB]

[复制链接]

2404

主题

2704

帖子

2万

积分

超级版主

Rank: 8Rank: 8

积分
22571
 楼主| 发表于 2021-7-2 13:42:55 | 显示全部楼层 |阅读模式
本帖最后由 叽里呱啦 于 2021-7-2 13:48 编辑

Majors - Dancing In The Starlit Night.mp4_20210702_131737.237_meitu_1.jpg Majors - Dancing In The Starlit Night.mp4_20210702_131747.725_meitu_2.jpg Majors - Dancing In The Starlit Night.mp4_20210702_131754.790_meitu_3.jpg Majors - Dancing In The Starlit Night.mp4_20210702_131800.086_meitu_4.jpg Majors - Dancing In The Starlit Night.mp4_20210702_131819.926_meitu_5.jpg Majors - Dancing In The Starlit Night.mp4_20210702_131838.726_meitu_6.jpg
General
Complete name                  : E:\电影、MV\Majors - 星光下的舞姿(收藏版) 4K.mp4
Format                         : MPEG-4
Format profile                 : Base Media / Version 2
Codec ID                       : mp42 (mp42/mp41)
File size                      : 1.14 GiB
Duration                       : 3 min 8 s
Overall bit rate mode          : Variable
Overall bit rate               : 52.0 Mb/s
Encoded date                   : UTC 2021-04-07 00:24:11
Tagged date                    : UTC 2021-04-07 00:24:49
TIM                            : 00:05:05:04
TSC                            : 24000
TSZ                            : 1001

Video
ID                             : 1
Format                         : AVC
Format/Info                    : Advanced Video Codec
Format profile                 : Main@L5.1
Format settings                : CABAC / 3 Ref Frames
Format settings, CABAC         : Yes
Format settings, Reference fra : 3 frames
Format settings, GOP           : M=1, N=30
Codec ID                       : avc1
Codec ID/Info                  : Advanced Video Coding
Duration                       : 3 min 8 s
Source duration                : 3 min 8 s
Bit rate                       : 51.5 Mb/s
Width                          : 3 840 pixels
Height                         : 2 160 pixels
Display aspect ratio           : 16:9
Frame rate mode                : Constant
Frame rate                     : 23.976 (24000/1001) FPS
Color space                    : YUV
Chroma subsampling             : 4:2:0
Bit depth                      : 8 bits
Scan type                      : Progressive
Bits/(Pixel*Frame)             : 0.259
Stream size                    : 1.13 GiB (99%)
Source stream size             : 1.13 GiB (99%)
Language                       : English
Encoded date                   : UTC 2021-04-07 00:24:11
Tagged date                    : UTC 2021-04-07 00:24:11
Codec configuration box        : avcC

Audio
ID                             : 2
Format                         : AAC LC
Format/Info                    : Advanced Audio Codec Low Complexity
Codec ID                       : mp4a-40-2
Duration                       : 3 min 8 s
Source duration                : 3 min 8 s
Bit rate mode                  : Variable
Bit rate                       : 317 kb/s
Maximum bit rate               : 412 kb/s
Channel(s)                     : 2 channels
Channel layout                 : L R
Sampling rate                  : 48.0 kHz
Frame rate                     : 46.875 FPS (1024 SPF)
Compression mode               : Lossy
Stream size                    : 7.13 MiB (1%)
Source stream size             : 7.14 MiB (1%)
Language                       : English
Encoded date                   : UTC 2021-04-07 00:24:11
Tagged date                    : UTC 2021-04-07 00:24:11

网盘下载失效不补:链接: https://pan.baidu.com/s/18hedJ64FG-RtLekSPasurw 提取码:
****此区域为收费内容****    需支付 30 金币后可查看立即购买



.
回复

使用道具 举报

1

主题

1298

帖子

3738

积分

4K家园VIP

Rank: 9Rank: 9Rank: 9

积分
3738
发表于 2021-7-2 13:42:59 | 显示全部楼层
我只是看看啊,不说话
回复 支持 反对

使用道具 举报

0

主题

5

帖子

85

积分

4K家园VIP

Rank: 9Rank: 9Rank: 9

积分
85
QQ
发表于 2021-7-2 19:30:12 | 显示全部楼层
提取码不对哎
回复 支持 反对

使用道具 举报

2404

主题

2704

帖子

2万

积分

超级版主

Rank: 8Rank: 8

积分
22571
 楼主| 发表于 2021-7-3 16:01:28 | 显示全部楼层

???,请你仔细点
回复 支持 反对

使用道具 举报

0

主题

1249

帖子

3763

积分

4K家园VIP

Rank: 9Rank: 9Rank: 9

积分
3763
发表于 2021-7-4 16:22:16 来自手机 | 显示全部楼层
4K版的应该更清晰吧
回复 支持 反对

使用道具 举报

42

主题

1431

帖子

4105

积分

4K家园VIP

Rank: 9Rank: 9Rank: 9

积分
4105
发表于 2021-7-6 06:44:23 | 显示全部楼层
好像还可以
回复 支持 反对

使用道具 举报

0

主题

1258

帖子

3784

积分

4K家园VIP

Rank: 9Rank: 9Rank: 9

积分
3784
发表于 2021-7-6 08:33:06 来自手机 | 显示全部楼层
没明白
回复 支持 反对

使用道具 举报

1

主题

1231

帖子

3707

积分

4K家园VIP

Rank: 9Rank: 9Rank: 9

积分
3707
发表于 2021-7-7 05:48:18 | 显示全部楼层
谢谢楼主
回复 支持 反对

使用道具 举报

0

主题

555

帖子

1928

积分

注册会员

Rank: 2

积分
1928
发表于 2021-7-11 23:15:04 | 显示全部楼层
感谢楼主分享
回复 支持 反对

使用道具 举报

0

主题

555

帖子

1928

积分

注册会员

Rank: 2

积分
1928
发表于 2021-7-14 11:34:49 | 显示全部楼层
感谢楼主发布
回复 支持 反对

使用道具 举报

您需要登录后才可以回帖 登录 | 立即注册

本版积分规则

精彩图文
Archiver|手机版|TAG|Sitemap|新帖|专题|联系我们:邮箱: 4kjia.com@gmail.com   

4k家园   ©2019