[4K电影] 至死不渝 / Till Death (2021) 4K高清下载/7.50GB

[复制链接]

3

主题

1154

帖子

3444

积分

4K家园VIP

Rank: 9Rank: 9Rank: 9

积分
3444
 楼主| 发表于 2021-7-2 18:39:06 | 显示全部楼层 |阅读模式
本帖最后由 叽里呱啦 于 2021-7-4 14:48 编辑

QQ图片20210702183457_副本_meitu_2.jpg

◎译  名 至死不渝
◎片  名 Till Death
◎年  代 2021
◎产  地 美国
◎类  别 惊悚
◎语  言 英语
◎上映日期 2021(美国)
◎IMDb评分 5.8/10 from 44 users
◎IMDb链接  https://www.imdb.com/title/tt11804152/
◎豆瓣评分 0/10 from 0 users
◎豆瓣链接 https://movie.douban.com/subject/34970326/
◎导  演 S.K.戴尔 S.K. Dale
◎编  剧 杰森·卡维尔 Jason Carvey
◎主  演 梅根·福克斯 Megan Fox



◎简  介

  梅根·福克斯(Megan Fox)已签约出演《至死不渝》(Till Death),这是千禧传媒公司导演SK Dale制作的惊悚恐怖惊悚片,该公司正将这部影片带给Efm,以积极推动全球买家。影片讲述了Emma(Fox)的故事,她是一个令人作呕的复仇剧情的一部分,被戴上死去 的丈夫的手铐,必须在两名杀手的杀戮中幸存下来才能完成工作。拍摄工作将于3月开始。
Video
ID : 1
Format : HEVC
Format/Info : High Efficiency Video Coding
Format profile : Main 10@L5@High
Codec ID : V_MPEGH/ISO/HEVC
Duration : 1 h 28 min
Bit rate : 11.7 Mb/s
Width : 3 836 pixels
Height : 1 720 pixels
Display aspect ratio : 2.25:1
Frame rate mode : Constant
Frame rate : 23.976 (23976/1000/189150) FPS
Color space : YUV
Chroma subsampling : 4:2:0
Bit depth : 10 bits
Bits/(Pixel*Frame) : 0.074
Stream size : 7.26 GiB (97%)
Default : Yes
Forced : No
Color range : Limited
Color primaries : BT.709
Transfer characteristics : BT.709
Matrix coefficients : BT.709

Audio
ID : 2
Format : AC-3
Format/Info : Audio Coding 3
Commercial name : Dolby Digital
Codec ID : A_AC3
Duration : 1 h 28 min
Bit rate mode : Constant
Bit rate : 384 kb/s
Channel(s) : 6 channels
Channel layout : L R C LFE Ls Rs
Sampling rate : 48.0 kHz
Frame rate : 31.250 FPS (1536 SPF)
Compression mode : Lossy
Stream size : 244 MiB (3%)
Title : English
Language : English
Service kind : Complete Main
Default : No
Forced : No

Text #1
ID : 3
Format : UTF-8
Codec ID : S_TEXT/UTF8
Codec ID/Info : UTF-8 Plain Text
Duration : 21 min 5 s
Bit rate : 31 b/s
Count of elements : 182
Stream size : 4.87 KiB (0%)
Title : English
Language : English
Default : No
Forced : No

Text #2
ID : 4
Format : UTF-8
Codec ID : S_TEXT/UTF8
Codec ID/Info : UTF-8 Plain Text
Duration : 23 min 38 s
Bit rate : 35 b/s
Count of elements : 235
Stream size : 6.09 KiB (0%)
Title : English SDH
Language : English
Default : No
Forced : No


游客,如果您要查看本帖隐藏内容请回复




.
回复

使用道具 举报

0

主题

1259

帖子

3791

积分

4K家园VIP

Rank: 9Rank: 9Rank: 9

积分
3791
发表于 2021-7-2 18:39:13 | 显示全部楼层
支持支持再支持
回复 支持 反对

使用道具 举报

53

主题

1155

帖子

3531

积分

4K家园VIP

Rank: 9Rank: 9Rank: 9

积分
3531
发表于 2021-7-2 19:43:23 | 显示全部楼层
沙发???
回复 支持 反对

使用道具 举报

0

主题

5565

帖子

1万

积分

4K家园VIP

Rank: 9Rank: 9Rank: 9

积分
13239
发表于 2021-7-2 21:55:05 | 显示全部楼层
太好啦&萬分感謝版主的無私發佈分享%
回复 支持 反对

使用道具 举报

0

主题

8

帖子

49

积分

新手上路

Rank: 1

积分
49
发表于 2021-7-3 12:39:33 | 显示全部楼层
感谢楼主分享
回复 支持 反对

使用道具 举报

0

主题

5

帖子

24

积分

新手上路

Rank: 1

积分
24
发表于 2021-7-3 18:02:27 | 显示全部楼层
至死不渝 / Till Death (2021) 4K高清下载
回复 支持 反对

使用道具 举报

0

主题

2

帖子

9

积分

新手上路

Rank: 1

积分
9
发表于 2021-7-4 09:31:05 | 显示全部楼层
给力噢
回复

使用道具 举报

0

主题

2

帖子

9

积分

新手上路

Rank: 1

积分
9
发表于 2021-7-4 09:31:52 | 显示全部楼层
哪里有9.73gb
回复 支持 反对

使用道具 举报

0

主题

1

帖子

6

积分

新手上路

Rank: 1

积分
6
发表于 2021-7-7 02:21:44 | 显示全部楼层
谢谢分享~~~
回复

使用道具 举报

3

主题

1304

帖子

3738

积分

4K家园VIP

Rank: 9Rank: 9Rank: 9

积分
3738
发表于 2021-7-9 07:34:24 来自手机 | 显示全部楼层
鼎力支持!!
回复 支持 反对

使用道具 举报

您需要登录后才可以回帖 登录 | 立即注册

本版积分规则

精彩图文
Archiver|手机版|TAG|Sitemap|新帖|专题|联系我们:邮箱: 4kjia.com@gmail.com   

4k家园   ©2019