[国家地理] [国家地理] 苏拉威西岛的天堂岛 (2020) [2160P/MKV/424MB]

[复制链接]

2415

主题

2715

帖子

2万

积分

超级版主

Rank: 8Rank: 8

积分
22686
 楼主| 发表于 2021-7-4 10:17:40 | 显示全部楼层 |阅读模式

苏拉威西岛的天堂岛 (2020) WEBRip 2160p.mkv_20210704_100714.981_meitu_1.jpg 苏拉威西岛的天堂岛 (2020) WEBRip 2160p.mkv_20210704_100728.333_meitu_2.jpg 苏拉威西岛的天堂岛 (2020) WEBRip 2160p.mkv_20210704_100743.597_meitu_3.jpg 苏拉威西岛的天堂岛 (2020) WEBRip 2160p.mkv_20210704_100751.446_meitu_4.jpg

影片信息
片名:天堂群岛 Labenki 和 Sombori
发行年份: 2020
国家:印度尼西亚
持续时间: 00 : 03 : 24
类型: 物种
导演:世界旅行家

关于电影:

        苏拉威西岛是一个巨大的、错综复杂的弯曲岛屿,是印度尼西亚的一颗明珠,串在赤道。专家称其为最通用的,将独特的自然美景与疯狂的人类创造相结合。一组风景将满足最挑剔的博物学家:在这里你可以找到潮湿的丛林、热带稀树草原、一望无际的山谷环绕的山脉、亚洲最好的珊瑚礁和雪白的海滩。许多动物群极具异国情调,仅在苏拉威西岛发现。

General
Complete name                  : D:\苏拉威西岛的天堂岛 (2020) WEBRip 2160p.mkv
Format                         : Matroska
Format version                 : Version 4
File size                      : 425 MiB
Duration                       : 3 min 24 s
Overall bit rate               : 17.4 Mb/s
Encoded date                   : UTC 2021-07-03 18:20:05
Writing application            : mkvmerge v56.1.0 ('My Friend') 64-bit
Writing library                : libebml v1.4.2 + libmatroska v1.6.4 / Lavf58.29.100

Video
ID                             : 1
Format                         : VP9
Codec ID                       : V_VP9
Duration                       : 3 min 24 s
Bit rate                       : 17.3 Mb/s
Width                          : 3 840 pixels
Height                         : 2 160 pixels
Display aspect ratio           : 16:9
Frame rate mode                : Constant
Frame rate                     : 23.976 (24000/1001) FPS
Color space                    : YUV
Bits/(Pixel*Frame)             : 0.087
Stream size                    : 422 MiB (99%)
Default                        : Yes
Forced                         : No
Color range                    : Limited
Color primaries                : BT.709
Transfer characteristics       : BT.709
Matrix coefficients            : BT.709

Audio
ID                             : 2
Format                         : Opus
Codec ID                       : A_OPUS
Duration                       : 3 min 24 s
Bit rate                       : 134 kb/s
Channel(s)                     : 2 channels
Channel layout                 : L R
Sampling rate                  : 48.0 kHz
Frame rate                     : 50.005 FPS (960 SPF)
Bit depth                      : 32 bits
Compression mode               : Lossy
Stream size                    : 3.27 MiB (1%)
Default                        : Yes
Forced                         : No
****此区域为收费内容****    需支付 15 金币后可查看立即购买




.

回复

使用道具 举报

62

主题

1451

帖子

4167

积分

4K家园VIP

Rank: 9Rank: 9Rank: 9

积分
4167
发表于 2021-7-4 10:17:44 | 显示全部楼层
元芳你怎么看?
回复 支持 反对

使用道具 举报

0

主题

5563

帖子

1万

积分

4K家园VIP

Rank: 9Rank: 9Rank: 9

积分
13230
发表于 2021-7-4 10:53:32 | 显示全部楼层
印度尼西亞蘇拉威西島的天堂島4k
回复 支持 反对

使用道具 举报

0

主题

147

帖子

1037

积分

注册会员

Rank: 2

积分
1037
发表于 2021-7-4 23:03:12 | 显示全部楼层
感谢楼主分享,谢谢了!
回复 支持 反对

使用道具 举报

2

主题

1245

帖子

3555

积分

4K家园VIP

Rank: 9Rank: 9Rank: 9

积分
3555
发表于 2021-7-6 18:33:24 | 显示全部楼层
垃圾
回复 支持 反对

使用道具 举报

3

主题

1288

帖子

3882

积分

4K家园VIP

Rank: 9Rank: 9Rank: 9

积分
3882
发表于 2021-7-10 12:46:22 | 显示全部楼层
分享的不错,希望楼主继续分享
回复 支持 反对

使用道具 举报

3

主题

1356

帖子

3922

积分

4K家园VIP

Rank: 9Rank: 9Rank: 9

积分
3922
发表于 2021-7-11 10:37:31 | 显示全部楼层
我也来顶一下..
回复 支持 反对

使用道具 举报

34

主题

1460

帖子

4090

积分

4K家园VIP

Rank: 9Rank: 9Rank: 9

积分
4090
发表于 2021-7-15 17:18:58 | 显示全部楼层
看起来好像不错的样子
回复 支持 反对

使用道具 举报

您需要登录后才可以回帖 登录 | 立即注册

本版积分规则

精彩图文
Archiver|手机版|TAG|Sitemap|新帖|专题|联系我们:邮箱: 4kjia.com@gmail.com   

4k家园   ©2019