[国家地理] [国家地理] 黑山国家森林(2019)[2160PMKV/593MB]

[复制链接]

2417

主题

2717

帖子

2万

积分

超级版主

Rank: 8Rank: 8

积分
22705
 楼主| 发表于 2021-7-15 13:47:43 | 显示全部楼层 |阅读模式

黑山国家森林(593.73MB)(2019)WE​​BRip 2160p.mkv_20210705_122909.830.jpg 黑山国家森林(593.73MB)(2019)WE​​BRip 2160p.mkv_20210705_122932.821.jpg 黑山国家森林(593.73MB)(2019)WE​​BRip 2160p.mkv_20210705_123000.958.jpg 黑山国家森林(593.73MB)(2019)WE​​BRip 2160p.mkv_20210705_123019.517.jpg 黑山国家森林(593.73MB)(2019)WE​​BRip 2160p.mkv_20210705_123025.150.jpg 黑山国家森林(593.73MB)(2019)WE​​BRip 2160p.mkv_20210705_123037.093.jpg

关于信息
标题:国家森林布莱克山
发行时间: 2019
国家/地区:美国
时长: 00 : 03 : 28
类型: 种
导演:该的Pattiz兄弟

电影简介:

         位于南达科他州西部的黑山国家森林(Black Hills National Forest)占地120万英亩,无与伦比。

General
Unique ID                      : 69308721892182757112831004656778715883 (0x34245FD1771B2C1FD6111848BEDDA2EB)
Complete name                  : D:国家地理\黑山国家森林(593.73MB)(2019)WE​​BRip 2160p.mkv
Format                         : Matroska
Format version                 : Version 4
File size                      : 594 MiB
Duration                       : 3 min 28 s
Overall bit rate               : 23.9 Mb/s
Encoded date                   : UTC 2021-02-15 19:15:29
Writing application            : mkvmerge v53.0.0 ('Fool's Gold') 64-bit
Writing library                : libebml v1.4.1 + libmatroska v1.6.2

Video
ID                             : 1
Format                         : AVC
Format/Info                    : Advanced Video Codec
Format profile                 : High@L5.2
Format settings                : CABAC / 5 Ref Frames
Format settings, CABAC         : Yes
Format settings, Reference fra : 5 frames
Codec ID                       : V_MPEG4/ISO/AVC
Duration                       : 3 min 28 s
Bit rate                       : 23.8 Mb/s
Width                          : 3 840 pixels
Height                         : 2 160 pixels
Display aspect ratio           : 16:9
Frame rate mode                : Constant
Frame rate                     : 23.976 (24000/1001) FPS
Color space                    : YUV
Chroma subsampling             : 4:2:0
Bit depth                      : 8 bits
Scan type                      : Progressive
Bits/(Pixel*Frame)             : 0.120
Stream size                    : 590 MiB (99%)
Writing library                : x264 core 157 r10 545de2f
Encoding settings              : cabac=1 / ref=5 / deblock=1:0:0 / analyse=0x3:0x113 / me=hex / subme=8 / psy=1 / psy_rd=1.00:0.00 / mixed_ref=1 / me_range=16 / chroma_me=1 / trellis=2 / 8x8dct=1 / cqm=0 / deadzone=21,11 / fast_pskip=1 / chroma_qp_offset=-2 / threads=48 / lookahead_threads=8 / sliced_threads=0 / nr=0 / decimate=1 / interlaced=0 / bluray_compat=0 / stitchable=1 / constrained_intra=0 / bframes=3 / b_pyramid=2 / b_adapt=2 / b_bias=0 / direct=3 / weightb=1 / open_gop=0 / weightp=2 / keyint=infinite / keyint_min=23 / scenecut=40 / intra_refresh=0 / rc_lookahead=50 / rc=crf / mbtree=1 / crf=20.0 / qcomp=0.60 / qpmin=5 / qpmax=69 / qpstep=4 / vbv_maxrate=24200 / vbv_bufsize=66000 / crf_max=0.0 / nal_hrd=none / filler=0 / ip_ratio=1.40 / aq=1:1.00
Default                        : Yes
Forced                         : No
Color range                    : Limited
Color primaries                : BT.709
Transfer characteristics       : BT.709
Matrix coefficients            : BT.709

Audio
ID                             : 2
Format                         : AAC LC
Format/Info                    : Advanced Audio Codec Low Complexity
Codec ID                       : A_AAC-2
Duration                       : 3 min 28 s
Bit rate                       : 137 kb/s
Channel(s)                     : 2 channels
Channel layout                 : L R
Sampling rate                  : 48.0 kHz
Frame rate                     : 46.875 FPS (1024 SPF)
Compression mode               : Lossy
Stream size                    : 3.40 MiB (1%)
Default                        : Yes
Forced                         : No



****此区域为收费内容****    需支付 15 金币后可查看立即购买




.
回复

使用道具 举报

5

主题

1405

帖子

4059

积分

4K家园VIP

Rank: 9Rank: 9Rank: 9

积分
4059
发表于 2021-7-15 13:47:48 | 显示全部楼层
回复 支持 反对

使用道具 举报

0

主题

5564

帖子

1万

积分

4K家园VIP

Rank: 9Rank: 9Rank: 9

积分
13236
发表于 2021-7-15 15:08:02 | 显示全部楼层
南達科他州西部的布萊克山4k
回复 支持 反对

使用道具 举报

46

主题

1423

帖子

4113

积分

4K家园VIP

Rank: 9Rank: 9Rank: 9

积分
4113
发表于 2021-7-15 18:21:31 | 显示全部楼层
路过的帮顶
回复 支持 反对

使用道具 举报

2

主题

1612

帖子

4428

积分

4K家园VIP

Rank: 9Rank: 9Rank: 9

积分
4428
发表于 2021-7-16 03:55:33 来自手机 | 显示全部楼层
垃圾
回复 支持 反对

使用道具 举报

51

主题

1333

帖子

3831

积分

4K家园VIP

Rank: 9Rank: 9Rank: 9

积分
3831
发表于 2021-7-16 12:06:34 | 显示全部楼层
为了三千积分!
回复 支持 反对

使用道具 举报

1

主题

1295

帖子

3691

积分

4K家园VIP

Rank: 9Rank: 9Rank: 9

积分
3691
发表于 2021-7-16 18:55:09 | 显示全部楼层
这个资源我记得是一套的,楼主还有没有
回复 支持 反对

使用道具 举报

您需要登录后才可以回帖 登录 | 立即注册

本版积分规则

精彩图文
Archiver|手机版|TAG|Sitemap|新帖|专题|联系我们:邮箱: 4kjia.com@gmail.com   

4k家园   ©2019