[国家地理] [国家地理] 拉脱维亚-里加(2021))[2160P/MKV/370MB]

[复制链接]

2417

主题

2717

帖子

2万

积分

超级版主

Rank: 8Rank: 8

积分
22705
 楼主| 发表于 2021-7-16 21:32:19 | 显示全部楼层 |阅读模式
拉脱维亚-里加(370MB)(2021)WEBRip 2160p.mkv_20210705_125924.342.jpg 拉脱维亚-里加(370MB)(2021)WEBRip 2160p.mkv_20210705_125934.446.jpg 拉脱维亚-里加(370MB)(2021)WEBRip 2160p.mkv_20210705_125940.150.jpg 拉脱维亚-里加(370MB)(2021)WEBRip 2160p.mkv_20210705_125946.262.jpg 拉脱维亚-里加(370MB)(2021)WEBRip 2160p.mkv_20210705_125953.246.jpg 拉脱维亚-里加(370MB)(2021)WEBRip 2160p.mkv_20210705_130001.702.jpg

有关信息
标题:拉脱维亚-里加
发行年份: 2021年
国家/地区:拉脱维亚
持续时间: 00 : 03 : 43
类型: 种类
导演:迈克尔·玛丽金

关于电影:

       里加是拉脱维亚的首都,坐落在道加瓦河两岸与波罗的海的交汇处。

General
Unique ID                      : 66892497859805725550856836303926359532 (0x325306C6A07C315CA6F88FC53F2875EC)
Complete name                  : D:国家地理\拉脱维亚-里加(370MB)(2021)WEBRip 2160p.mkv
Format                         : Matroska
Format version                 : Version 4
File size                      : 371 MiB
Duration                       : 3 min 43 s
Overall bit rate               : 13.9 Mb/s
Encoded date                   : UTC 2021-03-23 19:13:50
Writing application            : mkvmerge v55.0.0 ('Waiting For Space') 64-bit
Writing library                : libebml v1.4.2 + libmatroska v1.6.4 / Lavf58.29.100

Video
ID                             : 1
Format                         : VP9
Codec ID                       : V_VP9
Duration                       : 3 min 43 s
Bit rate                       : 13.8 Mb/s
Width                          : 3 840 pixels
Height                         : 2 160 pixels
Display aspect ratio           : 16:9
Frame rate mode                : Constant
Frame rate                     : 25.000 FPS
Color space                    : YUV
Bits/(Pixel*Frame)             : 0.067
Stream size                    : 367 MiB (99%)
Default                        : Yes
Forced                         : No
Color range                    : Limited
Color primaries                : BT.709
Transfer characteristics       : BT.709
Matrix coefficients            : BT.709

Audio
ID                             : 2
Format                         : Opus
Codec ID                       : A_OPUS
Duration                       : 3 min 43 s
Bit rate                       : 130 kb/s
Channel(s)                     : 2 channels
Channel layout                 : L R
Sampling rate                  : 48.0 kHz
Frame rate                     : 50.002 FPS (960 SPF)
Bit depth                      : 16 bits
Compression mode               : Lossy
Stream size                    : 3.45 MiB (1%)
Default                        : Yes
Forced                         : No


****此区域为收费内容****    需支付 15 金币后可查看立即购买



.
回复

使用道具 举报

40

主题

1426

帖子

4108

积分

4K家园VIP

Rank: 9Rank: 9Rank: 9

积分
4108
发表于 2021-7-16 21:32:25 | 显示全部楼层
没明白
回复 支持 反对

使用道具 举报

0

主题

5565

帖子

1万

积分

4K家园VIP

Rank: 9Rank: 9Rank: 9

积分
13239
发表于 2021-7-16 21:48:36 | 显示全部楼层
太好啦&萬分感謝版主的無私發佈分享%
回复 支持 反对

使用道具 举报

1

主题

1234

帖子

3718

积分

4K家园VIP

Rank: 9Rank: 9Rank: 9

积分
3718
发表于 2021-7-18 08:53:37 | 显示全部楼层
路过
回复 支持 反对

使用道具 举报

1

主题

1281

帖子

3863

积分

4K家园VIP

Rank: 9Rank: 9Rank: 9

积分
3863
发表于 2021-7-18 16:58:17 | 显示全部楼层
鼎力支持!!
回复 支持 反对

使用道具 举报

2

主题

1322

帖子

3786

积分

4K家园VIP

Rank: 9Rank: 9Rank: 9

积分
3786
发表于 2021-7-18 23:40:54 | 显示全部楼层
试试看吧
回复 支持 反对

使用道具 举报

3

主题

1154

帖子

3444

积分

4K家园VIP

Rank: 9Rank: 9Rank: 9

积分
3444
发表于 2021-7-20 14:24:53 | 显示全部楼层
LZ帖子不给力,勉强给回复下吧
回复 支持 反对

使用道具 举报

您需要登录后才可以回帖 登录 | 立即注册

本版积分规则

精彩图文
Archiver|手机版|TAG|Sitemap|新帖|专题|联系我们:邮箱: 4kjia.com@gmail.com   

4k家园   ©2019