2021 Whee In - OHOO [Special] 4k [2160P/MP4/175MB]

[复制链接]

2417

主题

2717

帖子

2万

积分

超级版主

Rank: 8Rank: 8

积分
22708
 楼主| 发表于 2021-7-7 11:11:37 | 显示全部楼层 |阅读模式
Whee In - OHOO [Special] 4k.mp4_20210706_210346.797.jpg Whee In - OHOO [Special] 4k.mp4_20210706_210355.051.jpg Whee In - OHOO [Special] 4k.mp4_20210706_210401.726.jpg Whee In - OHOO [Special] 4k.mp4_20210706_210408.739.jpg
General
Complete name                  : E:\电影、MV\4K MV\Whee In - OHOO [Special] 4k.mp4
Format                         : MPEG-4
Format profile                 : Base Media
Codec ID                       : isom (isom/iso2/avc1/mp41)
File size                      : 175 MiB
Duration                       : 3 min 41 s
Overall bit rate               : 6 628 kb/s
Writing application            : Lavf58.12.100
exvr                           : EX1.8.2(C1.0.9)

Video
ID                             : 1
Format                         : AVC
Format/Info                    : Advanced Video Codec
Format profile                 : High@L5.1
Format settings                : CABAC / 4 Ref Frames
Format settings, CABAC         : Yes
Format settings, Reference fra : 4 frames
Codec ID                       : avc1
Codec ID/Info                  : Advanced Video Coding
Duration                       : 3 min 41 s
Bit rate                       : 6 433 kb/s
Width                          : 2 688 pixels
Height                         : 2 160 pixels
Display aspect ratio           : 5:4
Frame rate mode                : Constant
Frame rate                     : 23.976 (23976/1000) FPS
Color space                    : YUV
Chroma subsampling             : 4:2:0
Bit depth                      : 8 bits
Scan type                      : Progressive
Bits/(Pixel*Frame)             : 0.046
Stream size                    : 170 MiB (97%)
Color range                    : Limited
Color primaries                : BT.709
Transfer characteristics       : BT.709
Matrix coefficients            : BT.709
Codec configuration box        : avcC

Audio
ID                             : 2
Format                         : AAC LC
Format/Info                    : Advanced Audio Codec Low Complexity
Codec ID                       : mp4a-40-2
Duration                       : 3 min 41 s
Bit rate mode                  : Constant
Bit rate                       : 192 kb/s
Channel(s)                     : 2 channels
Channel layout                 : L R
Sampling rate                  : 48.0 kHz
Frame rate                     : 46.875 FPS (1024 SPF)
Compression mode               : Lossy
Stream size                    : 5.08 MiB (3%)
Default                        : Yes
Alternate group                : 1

网盘下载失效不补:链接: https://pan.baidu.com/s/1pzS1DWt-pf9gbBQsoak_oQ 提取码:
****此区域为收费内容****    需支付 15 金币后可查看立即购买



.
回复

使用道具 举报

4

主题

1127

帖子

3371

积分

4K家园VIP

Rank: 9Rank: 9Rank: 9

积分
3371
发表于 2021-7-7 11:11:46 | 显示全部楼层
回个帖子,下班咯~
回复 支持 反对

使用道具 举报

52

主题

1394

帖子

4048

积分

4K家园VIP

Rank: 9Rank: 9Rank: 9

积分
4048
发表于 2021-7-7 15:23:40 | 显示全部楼层
支持楼主,用户楼主,楼主英明呀!!!
回复 支持 反对

使用道具 举报

2

主题

1612

帖子

4428

积分

4K家园VIP

Rank: 9Rank: 9Rank: 9

积分
4428
发表于 2021-7-8 07:50:56 | 显示全部楼层
楼猪辛苦了,支持一下分享好资源
回复 支持 反对

使用道具 举报

2

主题

1487

帖子

4033

积分

4K家园VIP

Rank: 9Rank: 9Rank: 9

积分
4033
发表于 2021-7-8 20:00:43 | 显示全部楼层
介是神马?!!
回复 支持 反对

使用道具 举报

1

主题

1117

帖子

3373

积分

4K家园VIP

Rank: 9Rank: 9Rank: 9

积分
3373
发表于 2021-7-9 20:14:26 来自手机 | 显示全部楼层
在撸一遍。。。
回复 支持 反对

使用道具 举报

您需要登录后才可以回帖 登录 | 立即注册

本版积分规则

精彩图文
Archiver|手机版|TAG|Sitemap|新帖|专题|联系我们:邮箱: 4kjia.com@gmail.com   

4k家园   ©2019