[4K MV] 2021 Apink - Thank you 4k [2160P/MP4/334MB]

[复制链接]

2415

主题

2715

帖子

2万

积分

超级版主

Rank: 8Rank: 8

积分
22686
 楼主| 发表于 2021-7-17 09:01:10 | 显示全部楼层 |阅读模式
2021 Apink - Thank you 4k.mp4_20210706_212506.039.jpg 2021 Apink - Thank you 4k.mp4_20210706_212513.398.jpg 2021 Apink - Thank you 4k.mp4_20210706_212521.397.jpg 2021 Apink - Thank you 4k.mp4_20210706_212546.235.jpg 2021 Apink - Thank you 4k.mp4_20210706_212612.360.jpg
General
Complete name                  : E:\电影、MV\4K MV\2021 Apink - Thank you 4k.mp4
Format                         : MPEG-4
Format profile                 : Base Media
Codec ID                       : isom (isom/iso2/avc1/mp41)
File size                      : 334 MiB
Duration                       : 4 min 0 s
Overall bit rate               : 11.6 Mb/s
Writing application            : Lavf58.12.100
exvr                           : EX1.8.2(C1.0.9)

Video
ID                             : 1
Format                         : AVC
Format/Info                    : Advanced Video Codec
Format profile                 : High@L5.1
Format settings                : CABAC / 4 Ref Frames
Format settings, CABAC         : Yes
Format settings, Reference fra : 4 frames
Codec ID                       : avc1
Codec ID/Info                  : Advanced Video Coding
Duration                       : 4 min 0 s
Bit rate                       : 11.4 Mb/s
Width                          : 3 840 pixels
Height                         : 2 160 pixels
Display aspect ratio           : 16:9
Frame rate mode                : Constant
Frame rate                     : 23.976 (23976/1000) FPS
Color space                    : YUV
Chroma subsampling             : 4:2:0
Bit depth                      : 8 bits
Scan type                      : Progressive
Bits/(Pixel*Frame)             : 0.058
Stream size                    : 328 MiB (98%)
Color range                    : Limited
Color primaries                : BT.709
Transfer characteristics       : BT.709
Matrix coefficients            : BT.709
Codec configuration box        : avcC

Audio
ID                             : 2
Format                         : AAC LC
Format/Info                    : Advanced Audio Codec Low Complexity
Codec ID                       : mp4a-40-2
Duration                       : 4 min 0 s
Duration_LastFrame             : -1 ms
Bit rate mode                  : Constant
Bit rate                       : 192 kb/s
Channel(s)                     : 2 channels
Channel layout                 : L R
Sampling rate                  : 48.0 kHz
Frame rate                     : 46.875 FPS (1024 SPF)
Compression mode               : Lossy
Stream size                    : 5.51 MiB (2%)
Default                        : Yes
Alternate group                : 1

网盘下载失效不补:链接: https://pan.baidu.com/s/1gOVDmlUSH2zNDT1PAvkwNA 提取码:
****此区域为收费内容****    需支付 15 金币后可查看立即购买

.
回复

使用道具 举报

1

主题

1220

帖子

3676

积分

4K家园VIP

Rank: 9Rank: 9Rank: 9

积分
3676
发表于 2021-7-17 09:01:15 | 显示全部楼层
为毛老子总也抢不到沙发?!!
回复 支持 反对

使用道具 举报

0

主题

1292

帖子

3710

积分

中级会员

Rank: 4

积分
3710
发表于 2021-7-17 21:57:52 | 显示全部楼层
体验下4K版的
回复 支持 反对

使用道具 举报

49

主题

1439

帖子

4149

积分

4K家园VIP

Rank: 9Rank: 9Rank: 9

积分
4149
发表于 2021-7-18 05:47:01 | 显示全部楼层
路过 帮顶 嘿嘿
回复 支持 反对

使用道具 举报

46

主题

1343

帖子

3857

积分

4K家园VIP

Rank: 9Rank: 9Rank: 9

积分
3857
发表于 2021-7-18 21:00:36 来自手机 | 显示全部楼层
垃圾内容,路过为证。
回复 支持 反对

使用道具 举报

1

主题

1536

帖子

4250

积分

4K家园VIP

Rank: 9Rank: 9Rank: 9

积分
4250
发表于 2021-7-20 22:36:24 | 显示全部楼层
差评
回复 支持 反对

使用道具 举报

您需要登录后才可以回帖 登录 | 立即注册

本版积分规则

精彩图文
Archiver|手机版|TAG|Sitemap|新帖|专题|联系我们:邮箱: 4kjia.com@gmail.com   

4k家园   ©2019