[国家地理] [国家地理] 巴厘岛 (2021) [2160P/MKV/428MB]

[复制链接]

2415

主题

2715

帖子

2万

积分

超级版主

Rank: 8Rank: 8

积分
22686
 楼主| 发表于 2021-7-8 10:40:01 | 显示全部楼层 |阅读模式
本帖最后由 叽里呱啦 于 2021-7-8 10:43 编辑

巴厘岛(424MB) (2021) WEBRip 2160p.mkv_20210708_103521.175.jpg 巴厘岛(424MB) (2021) WEBRip 2160p.mkv_20210708_103532.453.jpg 巴厘岛(424MB) (2021) WEBRip 2160p.mkv_20210708_103541.004.jpg 巴厘岛(424MB) (2021) WEBRip 2160p.mkv_20210708_103550.643.jpg 巴厘岛(424MB) (2021) WEBRip 2160p.mkv_20210708_103559.906.jpg 巴厘岛(424MB) (2021) WEBRip 2160p.mkv_20210708_103608.913.jpg


影片信息
片名:巴厘岛
原片:巴厘岛
上映年份: 2021
国家/地区:印度尼西亚
持续时间: 00 : 03 : 33

类型: 物种
导演:世界旅行达人

影片简介:

      巴厘岛是现实中的童话,一座美丽的岛屿,覆盖着翠绿的稻田和丁香林和肉桂树。



General
Complete name                  : E:巴厘岛(428MB) (2021) WEBRip 2160p.mkv
Format                         : Matroska
Format version                 : Version 4
File size                      : 429 MiB
Duration                       : 3 min 33 s
Overall bit rate               : 16.8 Mb/s
Encoded date                   : UTC 2021-07-06 19:09:57
Writing application            : mkvmerge v56.1.0 ('My Friend') 64-bit
Writing library                : libebml v1.4.2 + libmatroska v1.6.4 / Lavf58.29.100

Video
ID                             : 1
Format                         : VP9
Codec ID                       : V_VP9
Duration                       : 3 min 33 s
Bit rate                       : 16.7 Mb/s
Width                          : 3 840 pixels
Height                         : 2 160 pixels
Display aspect ratio           : 16:9
Frame rate mode                : Constant
Frame rate                     : 23.976 (24000/1001) FPS
Color space                    : YUV
Bits/(Pixel*Frame)             : 0.084
Stream size                    : 425 MiB (99%)
Default                        : Yes
Forced                         : No
Color range                    : Limited
Color primaries                : BT.709
Transfer characteristics       : BT.709
Matrix coefficients            : BT.709

Audio
ID                             : 2
Format                         : Opus
Codec ID                       : A_OPUS
Duration                       : 3 min 33 s
Bit rate                       : 135 kb/s
Channel(s)                     : 2 channels
Channel layout                 : L R
Sampling rate                  : 48.0 kHz
Frame rate                     : 50.002 FPS (960 SPF)
Bit depth                      : 32 bits
Compression mode               : Lossy
Stream size                    : 3.43 MiB (1%)
Default                        : Yes
Forced                         : No

下载链接
****此区域为收费内容****    需支付 15 金币后可查看立即购买



.
回复

使用道具 举报

1

主题

1248

帖子

3592

积分

4K家园VIP

Rank: 9Rank: 9Rank: 9

积分
3592
发表于 2021-7-8 10:40:08 | 显示全部楼层
怎么这么大,希望我电视能看啊
回复 支持 反对

使用道具 举报

10

主题

1114

帖子

3320

积分

4K家园VIP

Rank: 9Rank: 9Rank: 9

积分
3320
发表于 2021-7-9 09:33:28 | 显示全部楼层
是爷们的娘们的都帮顶!大力支持
回复 支持 反对

使用道具 举报

3

主题

1524

帖子

4168

积分

4K家园VIP

Rank: 9Rank: 9Rank: 9

积分
4168
发表于 2021-7-9 19:49:45 | 显示全部楼层
顶起出售广告位
回复 支持 反对

使用道具 举报

2

主题

1273

帖子

3685

积分

4K家园VIP

Rank: 9Rank: 9Rank: 9

积分
3685
发表于 2021-7-10 02:07:20 | 显示全部楼层
多谢楼主分享
回复 支持 反对

使用道具 举报

40

主题

1449

帖子

4137

积分

4K家园VIP

Rank: 9Rank: 9Rank: 9

积分
4137
发表于 2021-7-10 15:01:43 | 显示全部楼层
鼎力支持!!
回复 支持 反对

使用道具 举报

0

主题

867

帖子

2796

积分

注册会员

Rank: 2

积分
2796
发表于 2021-7-22 13:31:32 | 显示全部楼层
谢楼主分享~~
回复 支持 反对

使用道具 举报

您需要登录后才可以回帖 登录 | 立即注册

本版积分规则

精彩图文
Archiver|手机版|TAG|Sitemap|新帖|专题|联系我们:邮箱: 4kjia.com@gmail.com   

4k家园   ©2019