[4K MV] 2021 woo!ah! - Purple (Bugs) 4k [2160P/MP4/1.78GB]

[复制链接]

2417

主题

2717

帖子

2万

积分

超级版主

Rank: 8Rank: 8

积分
22708
 楼主| 发表于 2021-7-21 14:04:47 | 显示全部楼层 |阅读模式
本帖最后由 叽里呱啦 于 2021-7-17 09:06 编辑

woo!ah! - Purple (Bugs).mp4_20210708_125309.857_meitu_1.jpg woo!ah! - Purple (Bugs).mp4_20210708_125920.119_meitu_5.jpg woo!ah! - Purple (Bugs).mp4_20210708_125341.617_meitu_2.jpg woo!ah! - Purple (Bugs).mp4_20210708_125932.423_meitu_6.jpg woo!ah! - Purple (Bugs).mp4_20210708_125357.209_meitu_3.jpg woo!ah! - Purple (Bugs).mp4_20210708_125507.728_meitu_4.jpg
General
Complete name                  : E:\2021 woo!ah! - Purple (Bugs).mp4
Format                         : MPEG-4
Format profile                 : Base Media / Version 2
Codec ID                       : mp42 (mp42/mp41)
File size                      : 1.78 GiB
Duration                       : 3 min 10 s
Overall bit rate mode          : Variable
Overall bit rate               : 80.3 Mb/s
Encoded date                   : UTC 2021-05-26 11:31:43
Tagged date                    : UTC 2021-05-26 11:36:58
TIM                            : 00:00:00:00
TSC                            : 24000
TSZ                            : 1001

Video
ID                             : 1
Format                         : AVC
Format/Info                    : Advanced Video Codec
Format profile                 : High@L5.2
Format settings                : CABAC / 4 Ref Frames
Format settings, CABAC         : Yes
Format settings, Reference fra : 4 frames
Codec ID                       : avc1
Codec ID/Info                  : Advanced Video Coding
Duration                       : 3 min 10 s
Bit rate                       : 80.0 Mb/s
Width                          : 3 840 pixels
Height                         : 2 160 pixels
Display aspect ratio           : 16:9
Frame rate mode                : Constant
Frame rate                     : 23.976 (24000/1001) FPS
Color space                    : YUV
Chroma subsampling             : 4:2:0
Bit depth                      : 8 bits
Scan type                      : Progressive
Bits/(Pixel*Frame)             : 0.402
Stream size                    : 1.77 GiB (100%)
Language                       : English
Encoded date                   : UTC 2021-05-26 11:31:48
Tagged date                    : UTC 2021-05-26 11:31:48
Color range                    : Limited
Color primaries                : BT.709
Transfer characteristics       : BT.709
Matrix coefficients            : BT.709
Codec configuration box        : avcC

Audio
ID                             : 2
Format                         : AAC LC
Format/Info                    : Advanced Audio Codec Low Complexity
Codec ID                       : mp4a-40-2
Duration                       : 3 min 10 s
Source duration                : 3 min 10 s
Bit rate mode                  : Variable
Bit rate                       : 317 kb/s
Maximum bit rate               : 458 kb/s
Channel(s)                     : 2 channels
Channel layout                 : L R
Sampling rate                  : 48.0 kHz
Frame rate                     : 46.875 FPS (1024 SPF)
Compression mode               : Lossy
Stream size                    : 7.20 MiB (0%)
Source stream size             : 7.21 MiB (0%)
Language                       : English
Encoded date                   : UTC 2021-05-26 11:31:44
Tagged date                    : UTC 2021-05-26 11:31:44

网盘下载失效不补:链接: https://pan.baidu.com/s/1KNCpo-M563I32qn77MM-7Q 提取码:
****此区域为收费内容****    需支付 30 金币后可查看立即购买




.
回复

使用道具 举报

50

主题

1365

帖子

3905

积分

4K家园VIP

Rank: 9Rank: 9Rank: 9

积分
3905
发表于 2021-7-21 14:04:58 来自手机 | 显示全部楼层
秀起来~
回复 支持 反对

使用道具 举报

4

主题

1203

帖子

3629

积分

4K家园VIP

Rank: 9Rank: 9Rank: 9

积分
3629
发表于 2021-7-26 17:59:04 | 显示全部楼层
专业抢沙发的!哈哈
回复 支持 反对

使用道具 举报

2

主题

1253

帖子

3569

积分

4K家园VIP

Rank: 9Rank: 9Rank: 9

积分
3569
发表于 7 天前 | 显示全部楼层
发发呆,回回帖,工作结束~
回复 支持 反对

使用道具 举报

0

主题

4

帖子

21

积分

新手上路

Rank: 1

积分
21
发表于 6 天前 | 显示全部楼层

-

Not in it business.
回复 支持 反对

使用道具 举报

48

主题

1428

帖子

4154

积分

4K家园VIP

Rank: 9Rank: 9Rank: 9

积分
4154
发表于 5 天前 | 显示全部楼层
出4K版啦,下个看看
回复 支持 反对

使用道具 举报

49

主题

1403

帖子

4069

积分

4K家园VIP

Rank: 9Rank: 9Rank: 9

积分
4069
发表于 4 天前 | 显示全部楼层
报告!别开枪,我就是路过来看看的。。。
回复 支持 反对

使用道具 举报

您需要登录后才可以回帖 登录 | 立即注册

本版积分规则

精彩图文
Archiver|手机版|TAG|Sitemap|新帖|专题|联系我们:邮箱: 4kjia.com@gmail.com   

4k家园   ©2019