[4K电影] 闪电舞 / Flashdance (1983) 4K高清版本下载/12.70GB

[复制链接]

742

主题

783

帖子

6748

积分

超级版主

Rank: 8Rank: 8

积分
6748
 楼主| 发表于 2021-7-9 11:32:23 | 显示全部楼层 |阅读模式
QQ图片20210709112014_副本.png

◎译  名 闪电舞/劲舞/闪舞
◎片  名 Flashdance
◎年  代 1983
◎产  地 美国
◎类  别 剧情 / 爱情 / 音乐
◎语  言 英语
◎上映日期 1983-04-15
◎豆瓣评分 7.7/10 from 1945 users
◎豆瓣链接 https://movie.douban.com/subject/1294360/
◎片  长 95 分钟
◎导  演 阿德里安·莱恩 Adrian Lyne
◎编  剧 小托马斯·赫德利 Thomas Hedley Jr. / 乔·埃泽特哈斯 Joe Eszterhas
◎主  演 詹妮弗·比尔斯 Jennifer Beals
      迈克尔·诺里 Michael Nouri
      莉利亚·斯卡瓦 Lilia Skala
      桑妮·约翰逊 Sunny Johnson
      凯尔·T·赫夫纳 Kyle T. Heffner



◎简  介

  18岁的亚莉克欧文斯对舞蹈有一份狂爱,由于现实生活的压力,白天在一家铁工厂担任焊工,晚上在当地一家酒吧演出,全片刻画亚莉克追求理想、独立与爱情的奋斗过程。 主题曲由艾伦卡拉主唱,支支动听,舞曲风靡全球。

◎获奖情况

  第56届奥斯卡金像奖 ?(1984)
  最佳摄影(提名) 唐纳德·彼得曼
  最佳剪辑(提名) 巴德·S·史密斯?/?沃尔特·穆尔科内里
  最佳原创歌曲 基思·福西?/?乔治·莫罗德?/?艾瑞尼·卡拉
  最佳原创歌曲(提名) 迈克尔·塞姆贝洛?/?丹尼斯·马特科斯基

  第8届报知映画赏 ?(1983)
  海外作品奖 阿德里安·莱恩
Video
ID : 1
Format : HEVC
Format/Info : High Efficiency Video Coding
Format profile : Main 10@L5@Main
HDR format : SMPTE ST 2094 App 4, Version 0, HDR10 compatible
Codec ID : V_MPEGH/ISO/HEVC
Duration : 1 h 34 min
Bit rate : 14.9 Mb/s
Width : 3 840 pixels
Height : 2 160 pixels
Display aspect ratio : 16:9
Frame rate mode : Constant
Frame rate : 23.976 (24000/1001/189150) FPS
Standard : NTSC
Color space : YUV
Chroma subsampling : 4:2:0 (Type 2)
Bit depth : 10 bits
Bits/(Pixel*Frame) : 0.075
Stream size : 9.87 GiB (78%)
Default : Yes
Forced : No
Color range : Limited
Color primaries : BT.2020
Transfer characteristics : PQ
Matrix coefficients : BT.2020 non-constant
Mastering display color primaries : Display P3
Mastering display luminance : min: 0.0001 cd/m2, max: 1000 cd/m2
Maximum Content Light Level : 1000 cd/m2
Maximum Frame-Average Light Level : 131 cd/m2

Audio #1
ID : 2
ID in the original source medium : 4352 (0x1100)
Format : DTS XLL
Format/Info : Digital Theater Systems
Commercial name : DTS-HD Master Audio
Codec ID : A_DTS
Duration : 1 h 34 min
Bit rate mode : Variable
Bit rate : 3 607 kb/s
Channel(s) : 6 channels
Channel layout : C L R Ls Rs LFE
Sampling rate : 48.0 kHz
Frame rate : 93.750 FPS (512 SPF)
Bit depth : 24 bits
Compression mode : Lossless
Stream size : 2.39 GiB (19%)
Title : DTS-HD MA 5.1
Language : English
Default : Yes
Forced : No
Original source medium : Blu-ray

Audio #2
ID : 3
Format : E-AC-3
Format/Info : Enhanced AC-3
Commercial name : Dolby Digital Plus
Codec ID : A_EAC3
Duration : 1 h 34 min
Bit rate mode : Constant
Bit rate : 640 kb/s
Channel(s) : 6 channels
Channel layout : L R C LFE Ls Rs
Sampling rate : 48.0 kHz
Frame rate : 31.250 FPS (1536 SPF)
Compression mode : Lossy
Stream size : 433 MiB (3%)
Title : DDP 5.1
Language : English
Service kind : Complete Main
Default : No
Forced : No

Text #1
ID : 4
Format : UTF-8
Codec ID : S_TEXT/UTF8
Codec ID/Info : UTF-8 Plain Text
Duration : 1 h 32 min
Bit rate : 31 b/s
Count of elements : 944
Stream size : 21.6 KiB (0%)
Title : English
Language : English
Default : Yes
Forced : No

Text #2
ID : 5
Format : UTF-8
Codec ID : S_TEXT/UTF8
Codec ID/Info : UTF-8 Plain Text
Duration : 1 h 33 min
Bit rate : 43 b/s
Count of elements : 1260
Stream size : 29.9 KiB (0%)
Title : English [SDH]
Language : English
Default : No
Forced : No

Text #3
ID : 6
ID in the original source medium : 4608 (0x1200)
Format : PGS
Muxing mode : zlib
Codec ID : S_HDMV/PGS
Codec ID/Info : Picture based subtitle format used on BDs/HD-DVDs
Duration : 1 h 23 min
Bit rate : 24.3 kb/s
Count of elements : 1450
Stream size : 14.6 MiB (0%)
Language : English
Default : No
Forced : No
Original source medium : Blu-ray

Text #4
ID : 7
ID in the original source medium : 4609 (0x1201)
Format : PGS
Muxing mode : zlib
Codec ID : S_HDMV/PGS
Codec ID/Info : Picture based subtitle format used on BDs/HD-DVDs
Duration : 1 h 33 min
Bit rate : 32.4 kb/s
Count of elements : 1791
Stream size : 21.7 MiB (0%)
Language : English
Default : No
Forced : No
Original source medium : Blu-ray

Text #5
ID : 8
ID in the original source medium : 4610 (0x1202)
Format : PGS
Muxing mode : zlib
Codec ID : S_HDMV/PGS
Codec ID/Info : Picture based subtitle format used on BDs/HD-DVDs
Duration : 1 h 31 min
Bit rate : 21.0 kb/s
Count of elements : 1460
Stream size : 13.8 MiB (0%)
Language : French
Default : No
Forced : No
Original source medium : Blu-ray

Menu
00:00:00.000 : Chapter 01
00:03:49.270 : Chapter 02
00:11:29.271 : Chapter 03
00:24:33.972 : Chapter 04
00:25:54.052 : Chapter 05
00:29:32.937 : Chapter 06
00:33:04.273 : Chapter 07
00:39:28.491 : Chapter 08
00:44:20.824 : Chapter 09
00:47:52.119 : Chapter 10
00:51:58.615 : Chapter 11
00:55:17.772 : Chapter 12
01:02:13.813 : Chapter 13
01:05:59.956 : Chapter 14
01:14:23.750 : Chapter 15
01:18:29.996 : Chapter 16
01:24:55.799 : Chapter 17
01:29:59.894 : Chapter 18

迅雷下载资源速度为零,资源敏感和谐时,推荐使用qBittorrent等下载软件,有条件的推荐115更好的下载软件!


游客,如果您要查看本帖隐藏内容请回复




.
回复

使用道具 举报

1

主题

1334

帖子

3844

积分

4K家园VIP

Rank: 9Rank: 9Rank: 9

积分
3844
发表于 2021-7-9 11:32:28 | 显示全部楼层
very good
回复 支持 反对

使用道具 举报

0

主题

5565

帖子

1万

积分

4K家园VIP

Rank: 9Rank: 9Rank: 9

积分
13239
发表于 2021-7-9 11:36:45 | 显示全部楼层
太好啦&萬分感謝版主的無私發佈分享%
回复 支持 反对

使用道具 举报

34

主题

1460

帖子

4090

积分

4K家园VIP

Rank: 9Rank: 9Rank: 9

积分
4090
发表于 2021-7-10 22:06:39 | 显示全部楼层
向楼主学习
回复 支持 反对

使用道具 举报

0

主题

1242

帖子

3552

积分

4K家园VIP

Rank: 9Rank: 9Rank: 9

积分
3552
发表于 2021-7-11 18:33:49 | 显示全部楼层
分享的不错,希望楼主继续分享
回复 支持 反对

使用道具 举报

2

主题

1318

帖子

3804

积分

中级会员

Rank: 4

积分
3804
发表于 2021-7-11 18:51:27 | 显示全部楼层
支持楼主,用户楼主,楼主英明呀!!!
回复 支持 反对

使用道具 举报

5

主题

1405

帖子

4059

积分

4K家园VIP

Rank: 9Rank: 9Rank: 9

积分
4059
发表于 2021-7-14 10:26:45 | 显示全部楼层
发发呆,回回帖,工作结束~
回复 支持 反对

使用道具 举报

您需要登录后才可以回帖 登录 | 立即注册

本版积分规则

精彩图文
Archiver|手机版|TAG|Sitemap|新帖|专题|联系我们:邮箱: 4kjia.com@gmail.com   

4k家园   ©2019