[4K电影] Fathom(内嵌中字) (2021) 4K高清下载/15.41GB

[复制链接]

742

主题

783

帖子

6748

积分

超级版主

Rank: 8Rank: 8

积分
6748
 楼主| 发表于 2021-7-12 21:54:06 | 显示全部楼层 |阅读模式
QQ图片20210712214109_副本.png


◎片  名 Fathom
◎年  代 2021
◎产  地 美国

◎语      言   英语
◎上映日期   2021-06-25(美国)

◎IMDb评分  5.9/10 from 188 users
◎IMDb链接 https://www.imdb.com/title/tt13622130/
◎豆瓣评分 7.2/10 from 82 users
◎豆瓣链接 https://movie.douban.com/subject/35441238/

◎导      演    Drew Xanthopoulos


◎简  介

       苹果宣布,它已获得令人敬畏的纪录片《Fathom》的全球版权,该片将于6月25日在Apple TV+上独家首映。
  由德鲁·Xanthopoulos(“敏感人”)执导和拍摄,《Fathom》跟随Dr.艾伦·加兰和博士米歇尔·富内特,两位科学家专注于座头鲸歌曲和社交交流的研究。当他们在世界对立面开始平行的研究之旅时,他们寻求更好地了解鲸鱼文化和交流。这部纪录片独特地揭示了对科学pxrocess的深刻承诺和敬畏,以及人类寻求我们周围世界的答案的普遍需求。从假设到该领域的突破性经验,“法通”展示了领先科学家做出科学发现所需的激情、好奇心、合作、毅力和工作。

Video
ID : 1
Format : HEVC
Format/Info : High Efficiency Video Coding
Format profile : Main 10@L5@High
HDR format : Dolby Vision, Version 1.0, dvhe.05.06, BL+RPU
Codec ID : dvhe
Codec ID/Info : High Efficiency Video Coding with Dolby Vision
Duration : 1 h 26 min
Bit rate : 24.6 Mb/s
Width : 3 840 pixels
Height : 1 920 pixels
Display aspect ratio : 2.000
Frame rate mode : Constant
Frame rate : 23.976 (24000/1001) FPS
Color space : YUV
Chroma subsampling : 4:2:0
Bit depth : 10 bits
Bits/(Pixel*Frame) : 0.139
Stream size : 14.9 GiB (97%)
Default : Yes
Alternate group : 1
Encoded date : UTC 2021-07-11 17:47:45
Tagged date : UTC 2021-07-11 17:50:56
Codec configuration box : hvcC+dvcC

Audio
ID : 2
Format : E-AC-3 JOC
Format/Info : Enhanced AC-3 with Joint Object Coding
Commercial name : Dolby Digital Plus with Dolby Atmos
Codec ID : ec-3
Duration : 1 h 26 min
Bit rate mode : Constant
Bit rate : 768 kb/s
Maximum bit rate : 811 kb/s
Channel(s) : 6 channels
Channel layout : L R C LFE Ls Rs
Sampling rate : 48.0 kHz
Frame rate : 31.250 FPS (1536 SPF)
Compression mode : Lossy
Stream size : 477 MiB (3%)
Title : English
Language : English
Service kind : Complete Main
Encoded date : UTC 2021-07-11 17:46:21
Tagged date : UTC 2021-07-11 17:50:56
Complexity index : Not present / 16
Number of dynamic objects : 15
Bed channel count : 1 channel
Bed channel configuration : LFE

Text #1
ID : 3
Format : Timed Text
Codec ID : tx3g
Duration : 1 h 21 min
Bit rate mode : Variable
Bit rate : 64 b/s
Stream size : 38.2 KiB (0%)
Title : English
Language : English
Forced : No
Encoded date : UTC 2021-07-11 17:50:48
Tagged date : UTC 2021-07-11 17:50:56

Text #2
ID : 4
Format : Timed Text
Codec ID : tx3g
Duration : 1 h 26 min
Bit rate mode : Variable
Bit rate : 88 b/s
Stream size : 56.1 KiB (0%)
Title : العربية
Language : Arabic
Forced : No
Encoded date : UTC 2021-07-11 17:50:48
Tagged date : UTC 2021-07-11 17:50:56

Text #3
ID : 5
Format : Timed Text
Codec ID : tx3g
Duration : 1 h 26 min
Bit rate mode : Variable
Bit rate : 94 b/s
Stream size : 59.5 KiB (0%)
Title : български
Language : Bulgarian
Forced : No
Encoded date : UTC 2021-07-11 17:50:48
Tagged date : UTC 2021-07-11 17:50:56

Text #4
ID : 6
Format : Timed Text
Codec ID : tx3g
Duration : 1 h 26 min
Bit rate mode : Variable
Bit rate : 59 b/s
Stream size : 37.3 KiB (0%)
Title : 中文(简体)
Language : cmn
Forced : No
Encoded date : UTC 2021-07-11 17:50:48
Tagged date : UTC 2021-07-11 17:50:56

Text #5
ID : 7
Format : Timed Text
Codec ID : tx3g
Duration : 1 h 26 min
Bit rate mode : Variable
Bit rate : 57 b/s
Stream size : 36.5 KiB (0%)
Title : 中文(繁體)
Language : cmn
Forced : No
Encoded date : UTC 2021-07-11 17:50:48
Tagged date : UTC 2021-07-11 17:50:56


Text #6
ID : 8
Format : Timed Text
Codec ID : tx3g
Duration : 1 h 26 min
Bit rate mode : Variable
Bit rate : 62 b/s
Stream size : 39.6 KiB (0%)
Title : Čeština
Language : Czech
Forced : No
Encoded date : UTC 2021-07-11 17:50:49
Tagged date : UTC 2021-07-11 17:50:56

Text #7
ID : 9
Format : Timed Text
Codec ID : tx3g
Duration : 1 h 26 min
Bit rate mode : Variable
Bit rate : 56 b/s
Stream size : 35.3 KiB (0%)
Title : dansk
Language : Danish
Forced : No
Encoded date : UTC 2021-07-11 17:50:49
Tagged date : UTC 2021-07-11 17:50:56

Text #8
ID : 10
Format : Timed Text
Codec ID : tx3g
Duration : 1 h 26 min
Bit rate mode : Variable
Bit rate : 59 b/s
Stream size : 37.7 KiB (0%)
Title : Deutsch
Language : German
Forced : No
Encoded date : UTC 2021-07-11 17:50:49
Tagged date : UTC 2021-07-11 17:50:56

Text #9
ID : 11
Format : Timed Text
Codec ID : tx3g
Duration : 1 h 26 min
Bit rate mode : Variable
Bit rate : 106 b/s
Stream size : 67.6 KiB (0%)
Title : Ελληνικά
Language : Greek
Forced : No
Encoded date : UTC 2021-07-11 17:50:49
Tagged date : UTC 2021-07-11 17:50:56

Text #10
ID : 12
Format : Timed Text
Codec ID : tx3g
Duration : 1 h 26 min
Bit rate mode : Variable
Bit rate : 63 b/s
Stream size : 39.9 KiB (0%)
Title : Español (Latinoamérica)
Language : Spanish
Forced : No
Encoded date : UTC 2021-07-11 17:50:49
Tagged date : UTC 2021-07-11 17:50:56

Text #11
ID : 13
Format : Timed Text
Codec ID : tx3g
Duration : 1 h 26 min
Bit rate mode : Variable
Bit rate : 64 b/s
Stream size : 40.3 KiB (0%)
Title : Español (España)
Language : Spanish
Forced : No
Encoded date : UTC 2021-07-11 17:50:50
Tagged date : UTC 2021-07-11 17:50:56
迅雷下载资源速度为零,资源敏感和谐时,推荐使用qBittorrent等下载软件,有条件的推荐115更好的下载软件!

游客,如果您要查看本帖隐藏内容请回复





.
回复

使用道具 举报

44

主题

1370

帖子

3956

积分

4K家园VIP

Rank: 9Rank: 9Rank: 9

积分
3956
发表于 2021-7-12 21:54:10 | 显示全部楼层
感谢楼主的分享,还是阔以滴
回复 支持 反对

使用道具 举报

0

主题

3

帖子

43

积分

新手上路

Rank: 1

积分
43
发表于 2021-7-12 22:20:58 | 显示全部楼层

感谢楼主的分享
回复 支持 反对

使用道具 举报

0

主题

1

帖子

6

积分

新手上路

Rank: 1

积分
6
发表于 2021-7-12 22:55:38 来自手机 | 显示全部楼层
你好,谢谢了。
回复 支持 反对

使用道具 举报

0

主题

5565

帖子

1万

积分

4K家园VIP

Rank: 9Rank: 9Rank: 9

积分
13239
发表于 2021-7-13 00:10:23 | 显示全部楼层
太好啦&萬分感謝版主的無私發佈分享%
回复 支持 反对

使用道具 举报

0

主题

4

帖子

57

积分

4K家园VIP

Rank: 9Rank: 9Rank: 9

积分
57
发表于 2021-7-13 12:12:59 | 显示全部楼层
666666
回复

使用道具 举报

1

主题

1238

帖子

3598

积分

4K家园VIP

Rank: 9Rank: 9Rank: 9

积分
3598
发表于 2021-7-13 19:30:13 来自手机 | 显示全部楼层
纯粹路过,没任何兴趣,仅仅是看在老用户份上回复一下
回复 支持 反对

使用道具 举报

1

主题

1307

帖子

3729

积分

4K家园VIP

Rank: 9Rank: 9Rank: 9

积分
3729
发表于 2021-7-14 11:33:25 | 显示全部楼层
回复 支持 反对

使用道具 举报

39

主题

1346

帖子

3800

积分

4K家园VIP

Rank: 9Rank: 9Rank: 9

积分
3800
发表于 2021-7-14 13:09:40 来自手机 | 显示全部楼层
都不知道说的啥
回复 支持 反对

使用道具 举报

49

主题

1439

帖子

4149

积分

4K家园VIP

Rank: 9Rank: 9Rank: 9

积分
4149
发表于 2021-7-15 15:28:42 | 显示全部楼层
为保住菊花,这个一定得回复!
回复 支持 反对

使用道具 举报

您需要登录后才可以回帖 登录 | 立即注册

本版积分规则

精彩图文
Archiver|手机版|TAG|Sitemap|新帖|专题|联系我们:邮箱: 4kjia.com@gmail.com   

4k家园   ©2019