[4K电影] 老雷斯的故事 / Dr. Seuss' The Lorax (2012) 4K高清下载/11.00GB

[复制链接]

696

主题

737

帖子

6430

积分

超级版主

Rank: 8Rank: 8

积分
6430
 楼主| 发表于 2021-7-12 22:10:39 | 显示全部楼层 |阅读模式

QQ图片20210712220829_副本_meitu_2.jpg

◎译  名 老雷斯的故事/绿野仙生(港)/罗雷司(台)
◎片  名 Dr. Seuss' The Lorax
◎年  代 2012
◎产  地 美国,法国
◎类  别 动画 / 家庭 / 奇幻
◎语  言 英语
◎上映日期 2012-03-02(美国) / 2012-07-27(中国大陆)
◎豆瓣评分 6.9/10 from 24778 users
◎豆瓣链接 https://movie.douban.com/subject/3893805/
◎片  长 86分钟
◎导  演 克里斯·雷纳德 Chris Renaud / 凯尔·巴尔达 Kyle Balda / 肯·道里欧 Ken Daurio
◎编  剧 肯·道里欧 Ken Daurio / 辛科·保罗 Cinco Paul / 苏斯博士 Dr. Seuss
◎主  演 扎克·埃夫隆 Zac Efron
      泰勒·斯威夫特 Taylor Swift
      丹尼·德维托 Danny DeVito
      艾德·赫尔姆斯 Ed Helms
      贝蒂·怀特 Betty White
      罗伯·里格尔 Rob Riggle
      雪莉·琳恩 Sherry Lynn
      能年玲奈 Rena Nounen



◎简  介

  在一个名叫特尼镇的所在,鸟语花香,草木清新,生活富足,只是这些都是表面的假象,所有的树木都由人工材料做成,并通过电脑和电力维持运作。虽然空气质量糟糕,可是当地的人民乐于享受这便利的现代化生活,更何况有欧海尔先生(Rob Riggle 配音)为他们提供新鲜的桶装空气呢!小青年泰德(扎克·埃夫隆 Zac Efron 配音)暗恋美丽的姑娘奥黛丽(泰勒·史薇芙特 Taylor Swift 配音),为了帮助女孩实现见到真正树木的梦想,他铤而走险离开特尼镇,来到满目疮痍、阴霾污浊的外部世界寻找传说中知晓关于树木一切信息的老万。从老万口中,泰德了解到这个曾经的成功商人以及当初棉花树满布的乐园变成荒山的全过程。乐土从此一去不返,除非……

  本片改编自著名苏斯博士(Dr. Seuss)1971年经典同名原著,并荣获2012年青年选择奖最佳配音(Taylor Swift)和最佳动画片奖。

◎获奖情况

  第40届动画安妮奖 ?(2013)
  最佳配乐(提名) 约翰·鲍威尔?/?辛科·保罗
  最佳角色设计(提名) 科林·斯蒂普森?/?亚罗·切尼

  第14届美国青少年选择奖 ?(2012)
  最佳动画片
Video
ID : 1
Format : HEVC
Format/Info : High Efficiency Video Coding
Format profile : Main@L5@High
Codec ID : V_MPEGH/ISO/HEVC
Duration : 1 h 26 min
Bit rate : 13.7 Mb/s
Width : 3 840 pixels
Height : 2 160 pixels
Display aspect ratio : 16:9
Frame rate mode : Constant
Frame rate : 23.976 (24000/1001/189150) FPS
Color space : YUV
Chroma subsampling : 4:2:0
Bit depth : 8 bits
Bits/(Pixel*Frame) : 0.069
Stream size : 8.24 GiB (75%)
Default : Yes
Forced : No
Color range : Limited
Color primaries : BT.709
Transfer characteristics : BT.709
Matrix coefficients : BT.709

Audio #1
ID : 2
Format : DTS XLL
Format/Info : Digital Theater Systems
Commercial name : DTS-HD Master Audio
Codec ID : A_DTS
Duration : 1 h 26 min
Bit rate mode : Variable
Bit rate : 4 124 kb/s
Channel(s) : 6 channels
Channel layout : C L R Ls Rs LFE
Sampling rate : 48.0 kHz
Frame rate : 93.750 FPS (512 SPF)
Bit depth : 24 bits
Compression mode : Lossless
Delay relative to video : 6 ms
Stream size : 2.49 GiB (23%)
Title : DTS-HD MA 5.1
Language : English
Default : Yes
Forced : No

Audio #2
ID : 3
Format : AAC LC
Format/Info : Advanced Audio Codec Low Complexity
Codec ID : A_AAC-2
Duration : 1 h 26 min
Bit rate : 445 kb/s
Channel(s) : 6 channels
Channel layout : C L R Ls Rs LFE
Sampling rate : 48.0 kHz
Frame rate : 46.875 FPS (1024 SPF)
Compression mode : Lossy
Stream size : 274 MiB (2%)
Title : AAC 5.1
Language : English
Default : No
Forced : No

Text
ID : 4
Format : UTF-8
Codec ID : S_TEXT/UTF8
Codec ID/Info : UTF-8 Plain Text
Duration : 1 h 25 min
Bit rate : 66 b/s
Count of elements : 1454
Stream size : 41.8 KiB (0%)
Title : English
Language : English
Default : Yes
Forced : No

Menu
00:00:00.000 : 00:00:00.000
00:04:13.003 : 00:04:13.003
00:06:38.481 : 00:06:38.481
00:10:04.771 : 00:10:04.771
00:13:56.127 : 00:13:56.127
00:16:39.874 : 00:16:39.874
00:21:30.414 : 00:21:30.414
00:28:18.488 : 00:28:18.488
00:32:49.175 : 00:32:49.175
00:39:49.554 : 00:39:49.554
00:42:26.419 : 00:42:26.419
00:45:45.034 : 00:45:45.034
00:51:21.578 : 00:51:21.578
00:56:32.848 : 00:56:32.848
00:59:07.836 : 00:59:07.836
01:03:18.461 : 01:03:18.461
01:07:13.821 : 01:07:13.821
01:12:35.726 : 01:12:35.726
01:16:05.102 : 01:16:05.102
01:20:23.402 : 01:20:23.402
迅雷下载资源速度为零,资源敏感和谐时,推荐使用qBittorrent等下载软件,有条件的推荐115更好的下载软件!


游客,如果您要查看本帖隐藏内容请回复




.
QQ图片20210712220829_副本_meitu_2.jpg
回复

使用道具 举报

1

主题

1231

帖子

3707

积分

4K家园VIP

Rank: 9Rank: 9Rank: 9

积分
3707
发表于 2021-7-12 22:10:44 | 显示全部楼层
顶起顶起顶起
回复 支持 反对

使用道具 举报

0

主题

5450

帖子

1万

积分

4K家园VIP

Rank: 9Rank: 9Rank: 9

积分
13017
发表于 2021-7-13 00:10:40 | 显示全部楼层
太好啦&萬分感謝版主的無私發佈分享%
回复 支持 反对

使用道具 举报

57

主题

1444

帖子

4182

积分

4K家园VIP

Rank: 9Rank: 9Rank: 9

积分
4182
发表于 2021-7-15 15:30:11 | 显示全部楼层
顶顶更健康
回复 支持 反对

使用道具 举报

0

主题

1

帖子

6

积分

新手上路

Rank: 1

积分
6
发表于 2021-7-15 15:32:32 来自手机 | 显示全部楼层
机会哦哦
回复

使用道具 举报

3

主题

1542

帖子

4212

积分

中级会员

Rank: 4

积分
4212
发表于 2021-7-16 09:48:40 | 显示全部楼层
专业抢沙发的!哈哈
回复 支持 反对

使用道具 举报

0

主题

1526

帖子

4182

积分

4K家园VIP

Rank: 9Rank: 9Rank: 9

积分
4182
发表于 7 天前 | 显示全部楼层
LZ敢整点更有创意的不?兄弟们等着围观捏~
回复 支持 反对

使用道具 举报

2

主题

1317

帖子

3771

积分

4K家园VIP

Rank: 9Rank: 9Rank: 9

积分
3771
发表于 5 天前 | 显示全部楼层
好像还可以
回复 支持 反对

使用道具 举报

您需要登录后才可以回帖 登录 | 立即注册

本版积分规则

精彩图文
Archiver|手机版|TAG|Sitemap|新帖|专题|联系我们:邮箱: 4kjia.com@gmail.com   

4k家园   ©2019