[4K电影] 一起在一起 / Together Together (2021) 4K高清下载/13.42GB

[复制链接]

6

主题

1104

帖子

3290

积分

4K家园VIP

Rank: 9Rank: 9Rank: 9

积分
3290
 楼主| 发表于 2021-7-13 10:11:34 | 显示全部楼层 |阅读模式
QQ图片20210713100642_副本_meitu_2.jpg

◎译  名 一起在一起
◎片  名 Together Together
◎年  代 2021
◎产  地 美国
◎类  别 喜剧
◎语  言 英语
◎上映日期 2021-01-31(圣丹斯电影节) / 2021-05-11(美国网络)
◎豆瓣评分 6.2/10 from 169 users
◎豆瓣链接 https://movie.douban.com/subject/35288598/
◎片  长 90分钟(圣丹斯电影节)
◎导  演 尼克勒·贝克威思 Nikole Beckwith
◎编  剧 尼克勒·贝克威思 Nikole Beckwith
◎主  演 帕蒂·哈里森 Patti Harrison
      艾德·赫尔姆斯 Ed Helms
      赵家玲 Rosalind Chao
      蒂姆·夏普 Timm Sharp
      诺拉·邓恩 Nora Dunn
      弗雷德·迈拉麦德 Fred Melamed
      泰格·诺塔洛 Tig Notaro
      胡里奥·托雷斯 Julio Torres
      伊万·乔尼凯特 Evan Jonigkeit
      苏芙·布莱德肖 Sufe Bradshaw
      乔·费尔斯通 Jo Firestone
      David Chattam David Chattam
      海蒂·门德兹 Heidi Méndez
      埃伦·杜宾 Ellen Dubin
      梅·卡拉美维 May El Calamawy
      塔克·斯莫尔伍德 Tucker Smallwood
      Terri Hoyos Terri Hoyos
      安娜·康克尔 Anna Konkle
      凯特琳·金博尔 Caitlin Kimball

◎标  签 美国 | 喜剧 | 剧情 | 代孕 | 2021 | 女性 | 圣丹斯 | 艾德·赫尔姆斯

◎简  介

  中年单身程序设计师马特决定要当父亲,通过面试找到26岁的咖啡店服务生安娜代孕生子。安娜因与家人关系僵化,搬至旧金山,她希望通过代孕能获得供自己完成学业的钱。在孕期马特积极介入安娜的生活,事无巨细,安娜也逐渐接受马特的亲密,彼此敞开心扉,建立了一段不太寻常的友谊。

◎获奖情况

  第37届圣丹斯电影节 ?(2021)
  评审团大奖剧情片(提名) 尼克勒·贝克威思
Video
ID : 1
Format : HEVC
Format/Info : High Efficiency Video Coding
Format profile : Main 10@L5@High
Codec ID : V_MPEGH/ISO/HEVC
Duration : 1 h 30 min
Bit rate : 20.8 Mb/s
Width : 3 836 pixels
Height : 1 920 pixels
Display aspect ratio : 1.998
Frame rate mode : Constant
Frame rate : 23.976 (24000/1001/189150) FPS
Color space : YUV
Chroma subsampling : 4:2:0
Bit depth : 10 bits
Bits/(Pixel*Frame) : 0.118
Stream size : 13.2 GiB (98%)
Language : English
Default : Yes
Forced : No
Color range : Limited
Color primaries : BT.709
Transfer characteristics : BT.709
Matrix coefficients : BT.709

Audio
ID : 2
Format : AC-3
Format/Info : Audio Coding 3
Commercial name : Dolby Digital
Codec ID : A_AC3
Duration : 1 h 30 min
Bit rate mode : Constant
Bit rate : 384 kb/s
Channel(s) : 6 channels
Channel layout : L R C LFE Ls Rs
Sampling rate : 48.0 kHz
Frame rate : 31.250 FPS (1536 SPF)
Compression mode : Lossy
Stream size : 249 MiB (2%)
Language : English
Service kind : Complete Main
Default : Yes
Forced : No

Text
ID : 3
Format : UTF-8
Codec ID : S_TEXT/UTF8
Codec ID/Info : UTF-8 Plain Text
Duration : 1 h 29 min
Bit rate : 59 b/s
Count of elements : 1482
Stream size : 39.3 KiB (0%)
Language : Spanish
Default : No
Forced : No



下载链接
游客,如果您要查看本帖隐藏内容请回复






回复

使用道具 举报

54

主题

1386

帖子

4002

积分

4K家园VIP

Rank: 9Rank: 9Rank: 9

积分
4002
发表于 2021-7-13 10:12:16 | 显示全部楼层
支持,赞一个
回复 支持 反对

使用道具 举报

0

主题

5450

帖子

1万

积分

4K家园VIP

Rank: 9Rank: 9Rank: 9

积分
13017
发表于 2021-7-13 13:04:32 | 显示全部楼层
太好啦&萬分感謝版主的無私發佈分享%
回复 支持 反对

使用道具 举报

55

主题

1368

帖子

3958

积分

4K家园VIP

Rank: 9Rank: 9Rank: 9

积分
3958
发表于 2021-7-15 18:54:06 来自手机 | 显示全部楼层
高手云集 果断围观
回复 支持 反对

使用道具 举报

49

主题

1400

帖子

4060

积分

4K家园VIP

Rank: 9Rank: 9Rank: 9

积分
4060
发表于 2021-7-16 01:42:31 | 显示全部楼层
边撸边过
回复 支持 反对

使用道具 举报

1

主题

1054

帖子

3182

积分

4K家园VIP

Rank: 9Rank: 9Rank: 9

积分
3182
发表于 2021-7-16 17:29:42 来自手机 | 显示全部楼层
试试看吧
回复 支持 反对

使用道具 举报

39

主题

1341

帖子

3785

积分

4K家园VIP

Rank: 9Rank: 9Rank: 9

积分
3785
发表于 4 天前 | 显示全部楼层
鄙视楼下的顶帖没我快,哈哈
回复 支持 反对

使用道具 举报

您需要登录后才可以回帖 登录 | 立即注册

本版积分规则

精彩图文
Archiver|手机版|TAG|Sitemap|新帖|专题|联系我们:邮箱: 4kjia.com@gmail.com   

4k家园   ©2019