[4K电影] Brewmance (2021) 4K高清版本下载/8.67GB

[复制链接]

51

主题

1461

帖子

4155

积分

4K家园VIP

Rank: 9Rank: 9Rank: 9

积分
4155
 楼主| 发表于 2021-7-13 22:22:10 | 显示全部楼层 |阅读模式
本帖最后由 最爱4K哟 于 2021-7-13 23:29 编辑

QQ图片20210713221937_副本.png

◎片  名 Brewmance
◎年  代 2021
◎国  家 美国
◎类  别 纪录片
◎语  言 英语
◎上映日期 2021
◎IMDb评分  0/10 from 0 users
◎IMDb链接  https://www.imdb.com/title/tt7616910/
◎片  长 102 Mins
◎导  演 克里斯托·布洛克
◎编  剧   克里斯托·布洛克/索尼娅·申克
◎演  员   拉里·贝尔
                   山姆·卡拉乔内
                   维尼·西鲁佐
                   肯·格罗斯曼
                   吉姆·科赫
                   弗里茨·梅塔格
                   兰迪·莫舍
                   莫琳·奥格尔
                   约翰·帕默
                   查理·帕帕齐安


◎简  介


       精酿啤酒始于一群焦躁不安的家庭酿酒师,他们正在寻找真正可口的东西。它已成为一种全球性的品味现象。这种反叛和创新精神存在于来自加利福尼亚长滩的两组家庭酿酒商中,他们很快就会开设自己的啤酒厂。在标志性酿酒师 Ken Grossman、Charlie Papazian、Vinnie Cilurzo、Sam Calagione、Jim Koch 等人的帮助下,精酿啤酒的灵魂终于被揭开。

Video
ID : 1
Format : HEVC
Format/Info : High Efficiency Video Coding
Format profile : Main 10@L5@High
Codec ID : V_MPEGH/ISO/HEVC
Duration : 1 h 42 min
Bit rate : 11.8 Mb/s
Width : 3 840 pixels
Height : 2 160 pixels
Display aspect ratio : 16:9
Frame rate mode : Constant
Frame rate : 23.976 (24000/1001) FPS
Color space : YUV
Chroma subsampling : 4:2:0
Bit depth : 10 bits
Bits/(Pixel*Frame) : 0.059
Stream size : 8.40 GiB (97%)
Language : English
Default : Yes
Forced : No
Color range : Limited
Color primaries : BT.709
Transfer characteristics : BT.709
Matrix coefficients : BT.709

Audio
ID : 2
Format : AC-3
Format/Info : Audio Coding 3
Commercial name : Dolby Digital
Codec ID : A_AC3
Duration : 1 h 42 min
Bit rate mode : Constant
Bit rate : 384 kb/s
Channel(s) : 6 channels
Channel layout : L R C LFE Ls Rs
Sampling rate : 48.0 kHz
Frame rate : 31.250 FPS (1536 SPF)
Compression mode : Lossy
Stream size : 281 MiB (3%)
Language : English
Service kind : Complete Main
Default : Yes
Forced : No



游客,如果您要查看本帖隐藏内容请回复



.
回复

使用道具 举报

62

主题

1451

帖子

4167

积分

4K家园VIP

Rank: 9Rank: 9Rank: 9

积分
4167
发表于 2021-7-13 22:22:19 | 显示全部楼层
我也是坐沙发的
回复 支持 反对

使用道具 举报

0

主题

560

帖子

1946

积分

注册会员

Rank: 2

积分
1946
发表于 2021-7-13 23:27:19 | 显示全部楼层

感谢楼主发布
回复 支持 反对

使用道具 举报

0

主题

1

帖子

6

积分

新手上路

Rank: 1

积分
6
发表于 2021-7-14 21:57:17 | 显示全部楼层

webcam show free

webcam show free
回复 支持 反对

使用道具 举报

37

主题

1404

帖子

4012

积分

4K家园VIP

Rank: 9Rank: 9Rank: 9

积分
4012
发表于 2021-7-15 06:04:40 | 显示全部楼层
1v1飘过
回复 支持 反对

使用道具 举报

0

主题

560

帖子

1946

积分

注册会员

Rank: 2

积分
1946
发表于 2021-7-15 12:33:10 | 显示全部楼层
感谢楼主发布
回复 支持 反对

使用道具 举报

54

主题

1390

帖子

4014

积分

4K家园VIP

Rank: 9Rank: 9Rank: 9

积分
4014
发表于 2021-7-15 20:36:21 | 显示全部楼层
垃圾内容,路过为证。
回复 支持 反对

使用道具 举报

64

主题

1439

帖子

4179

积分

4K家园VIP

Rank: 9Rank: 9Rank: 9

积分
4179
发表于 2021-7-16 04:02:00 | 显示全部楼层
大人,此事必有蹊跷!
回复 支持 反对

使用道具 举报

您需要登录后才可以回帖 登录 | 立即注册

本版积分规则

精彩图文
Archiver|手机版|TAG|Sitemap|新帖|专题|联系我们:邮箱: 4kjia.com@gmail.com   

4k家园   ©2019