[4K电影] Tall.Poppy.A.Skaters.Story (2021)4K高清版本下载/13.08GB

[复制链接]

742

主题

783

帖子

6748

积分

超级版主

Rank: 8Rank: 8

积分
6748
 楼主| 发表于 2021-7-13 22:51:15 | 显示全部楼层 |阅读模式
本帖最后由 最爱4K哟 于 2021-7-14 21:51 编辑

QQ图片20210713224846_副本_meitu_4.jpg

◎片  名 Tall.Poppy.A.Skaters.Story
◎年  代 2021
◎国  家 美国
◎类  别 纪录片
◎语  言 英语
◎上映日期 2021
◎IMDb评分  0/10 from 0 users
◎IMDb链接  https://www.imdb.com/title/tt10963966/
◎片  长 70 Mins
◎导  演 贾斯汀·莫伊尔
◎编  剧   贾斯汀·莫伊尔/艾米莉·奥康奈尔Emily O'Connell


◎简  介

         拍摄了 10 多年,这张亲密的肖像记录了世界冠军滑板运动员波比奥尔森的成年和她成为第一批参加奥运会的女性之一的准备。
Video
ID : 1
Format : HEVC
Format/Info : High Efficiency Video Coding
Format profile : Main 10@L5@High
Codec ID : V_MPEGH/ISO/HEVC
Duration : 1 h 29 min
Bit rate : 20.5 Mb/s
Width : 3 840 pixels
Height : 2 160 pixels
Display aspect ratio : 16:9
Frame rate mode : Constant
Frame rate : 25.000 FPS
Color space : YUV
Chroma subsampling : 4:2:0
Bit depth : 10 bits
Bits/(Pixel*Frame) : 0.099
Stream size : 12.8 GiB (98%)
Language : English
Default : Yes
Forced : No
Color range : Limited
Color primaries : BT.709
Transfer characteristics : BT.709
Matrix coefficients : BT.709

Audio
ID : 2
Format : AC-3
Format/Info : Audio Coding 3
Commercial name : Dolby Digital
Codec ID : A_AC3
Duration : 1 h 29 min
Bit rate mode : Constant
Bit rate : 384 kb/s
Channel(s) : 6 channels
Channel layout : L R C LFE Ls Rs
Sampling rate : 48.0 kHz
Frame rate : 31.250 FPS (1536 SPF)
Compression mode : Lossy
Stream size : 246 MiB (2%)
Language : English
Service kind : Complete Main
Default : Yes
Forced : No

Text
ID : 3
Format : UTF-8
Codec ID : S_TEXT/UTF8
Codec ID/Info : UTF-8 Plain Text
Duration : 1 h 28 min
Bit rate : 94 b/s
Count of elements : 2670
Stream size : 61.8 KiB (0%)
Language : Spanish
Default : No
Forced : No


迅雷下载资源速度为零,资源敏感和谐时,推荐使用qBittorrent等下载软件,有条件的推荐115更好的下载软件!

游客,如果您要查看本帖隐藏内容请回复



.
回复

使用道具 举报

57

主题

1396

帖子

4042

积分

4K家园VIP

Rank: 9Rank: 9Rank: 9

积分
4042
发表于 2021-7-13 22:51:21 来自手机 | 显示全部楼层
怎么这么大,希望我电视能看啊
回复 支持 反对

使用道具 举报

0

主题

5563

帖子

1万

积分

4K家园VIP

Rank: 9Rank: 9Rank: 9

积分
13230
发表于 2021-7-13 23:19:39 | 显示全部楼层
太好啦&萬分感謝版主的無私發佈分享%
回复 支持 反对

使用道具 举报

0

主题

1294

帖子

3726

积分

4K家园VIP

Rank: 9Rank: 9Rank: 9

积分
3726
发表于 2021-7-16 16:02:53 | 显示全部楼层
呵呵。。。
回复 支持 反对

使用道具 举报

1

主题

1326

帖子

3794

积分

4K家园VIP

Rank: 9Rank: 9Rank: 9

积分
3794
发表于 2021-7-17 14:23:50 | 显示全部楼层
报告!别开枪,我就是路过来看看的。。。
回复 支持 反对

使用道具 举报

50

主题

1421

帖子

4081

积分

4K家园VIP

Rank: 9Rank: 9Rank: 9

积分
4081
发表于 2021-7-17 17:13:23 | 显示全部楼层
元芳你怎么看?
回复 支持 反对

使用道具 举报

0

主题

1

帖子

6

积分

新手上路

Rank: 1

积分
6
发表于 2021-7-18 11:15:23 | 显示全部楼层

nude girls video

nude girls video
回复 支持 反对

使用道具 举报

1

主题

1330

帖子

3798

积分

4K家园VIP

Rank: 9Rank: 9Rank: 9

积分
3798
发表于 2021-7-21 02:08:30 | 显示全部楼层
正需要
回复 支持 反对

使用道具 举报

您需要登录后才可以回帖 登录 | 立即注册

本版积分规则

精彩图文
Archiver|手机版|TAG|Sitemap|新帖|专题|联系我们:邮箱: 4kjia.com@gmail.com   

4k家园   ©2019