[4K电影] Through.Her.Eyes (2021) 4K高清版本下载/9.71GB

[复制链接]

34

主题

1460

帖子

4090

积分

4K家园VIP

Rank: 9Rank: 9Rank: 9

积分
4090
 楼主| 发表于 2021-7-14 22:01:08 | 显示全部楼层 |阅读模式
QQ图片20210714214651_副本_meitu_1.jpg

◎片  名 Through.Her.Eyes
◎年  代 2021
◎国  家 美国
◎类  别 剧情
◎语  言 英语
◎上映日期 2021
◎IMDb评分  0/10 from 0 users
◎IMDb链接  https://www.imdb.com/title/tt14857882/
◎片  长 84 Mins
◎导  演 特伦顿·兰普金
◎编  剧   特伦顿·兰普金
◎主  演   雷文·西蒙·费雷尔
                   罗莎莉·温布什
                   安吉拉·雷
                   梅温布什
                   肖恩·拉基
                   奥蒂斯·温布什
                   迈克尔·克里斯托弗·罗德尼
                   奥的斯(小)温布什
                   托尼·德米尔
                   比尔·卡马克


◎简  介



          根据真实生活事件改编。通过她的眼睛是一部关于一个非洲裔美国青少年在自尊中挣扎的戏剧;谁在决定就读一所新融合的学校后,必须找到参加入学考试的信心,同时面临种族偏见。
Video
ID : 1
Format : HEVC
Format/Info : High Efficiency Video Coding
Format profile : Main 10@L5@High
Codec ID : V_MPEGH/ISO/HEVC
Duration : 1 h 6 min
Bit rate : 20.7 Mb/s
Width : 3 840 pixels
Height : 1 920 pixels
Display aspect ratio : 2.000
Frame rate mode : Constant
Frame rate : 23.976 (24000/1001) FPS
Color space : YUV
Chroma subsampling : 4:2:0
Bit depth : 10 bits
Bits/(Pixel*Frame) : 0.117
Stream size : 9.64 GiB (99%)
Default : Yes
Forced : No
Color range : Limited
Color primaries : BT.709
Transfer characteristics : BT.709
Matrix coefficients : BT.709

Audio
ID : 2
Format : AAC LC
Format/Info : Advanced Audio Codec Low Complexity
Codec ID : A_AAC-2
Duration : 1 h 6 min
Bit rate : 154 kb/s
Channel(s) : 2 channels
Channel layout : L R
Sampling rate : 48.0 kHz
Frame rate : 46.875 FPS (1024 SPF)
Compression mode : Lossy
Stream size : 73.2 MiB (1%)
Title : English
Language : English
Default : No
Forced : No

Text #1
ID : 3
Format : UTF-8
Codec ID : S_TEXT/UTF8
Codec ID/Info : UTF-8 Plain Text
Duration : 1 h 1 min
Bit rate : 68 b/s
Count of elements : 934
Stream size : 30.8 KiB (0%)
Title : English [SDH]
Language : English
Default : No
Forced : No

Text #2
ID : 4
Format : UTF-8
Codec ID : S_TEXT/UTF8
Codec ID/Info : UTF-8 Plain Text
Duration : 1 h 1 min
Bit rate : 55 b/s
Count of elements : 781
Stream size : 25.1 KiB (0%)
Title : English
Language : English
Default : No
Forced : No




游客,如果您要查看本帖隐藏内容请回复


.
回复

使用道具 举报

0

主题

1260

帖子

3790

积分

4K家园VIP

Rank: 9Rank: 9Rank: 9

积分
3790
发表于 2021-7-14 22:01:13 | 显示全部楼层
高手云集 果断围观
回复 支持 反对

使用道具 举报

0

主题

5563

帖子

1万

积分

4K家园VIP

Rank: 9Rank: 9Rank: 9

积分
13230
发表于 2021-7-14 22:42:25 | 显示全部楼层
太好啦&萬分感謝版主的無私發佈分享%
回复 支持 反对

使用道具 举报

3

主题

1580

帖子

4338

积分

4K家园VIP

Rank: 9Rank: 9Rank: 9

积分
4338
发表于 2021-7-15 00:38:13 | 显示全部楼层
有空一起交流一下
回复 支持 反对

使用道具 举报

0

主题

1271

帖子

3663

积分

4K家园VIP

Rank: 9Rank: 9Rank: 9

积分
3663
发表于 2021-7-15 05:37:55 来自手机 | 显示全部楼层
顶起顶起顶起
回复 支持 反对

使用道具 举报

3

主题

1288

帖子

3882

积分

4K家园VIP

Rank: 9Rank: 9Rank: 9

积分
3882
发表于 2021-7-15 13:54:50 | 显示全部楼层
一直在看
回复 支持 反对

使用道具 举报

1

主题

1304

帖子

3760

积分

4K家园VIP

Rank: 9Rank: 9Rank: 9

积分
3760
发表于 2021-7-15 17:23:14 来自手机 | 显示全部楼层
支持你哈...................................
回复 支持 反对

使用道具 举报

0

主题

1

帖子

6

积分

新手上路

Rank: 1

积分
6
发表于 2021-7-17 01:24:46 | 显示全部楼层

live nude video chat

live nude video chat
回复 支持 反对

使用道具 举报

您需要登录后才可以回帖 登录 | 立即注册

本版积分规则

精彩图文
Archiver|手机版|TAG|Sitemap|新帖|专题|联系我们:邮箱: 4kjia.com@gmail.com   

4k家园   ©2019