2021 NCT DREAM - Hello Future 4k [2160P/MP4/392MB]

[复制链接]

2417

主题

2717

帖子

2万

积分

超级版主

Rank: 8Rank: 8

积分
22705
 楼主| 发表于 2021-7-17 14:00:00 | 显示全部楼层 |阅读模式
NCT DREAM - Hello Future 4k.mp4_20210716_141843.883.jpg NCT DREAM - Hello Future 4k.mp4_20210716_141903.618.jpg NCT DREAM - Hello Future 4k.mp4_20210716_141910.786.jpg NCT DREAM - Hello Future 4k.mp4_20210716_141921.954.jpg
General
Complete name                  : E:\电影、MV\NCT DREAM - Hello Future 4k.mp4
Format                         : MPEG-4
Format profile                 : Base Media
Codec ID                       : isom (isom/iso2/avc1/mp41)
File size                      : 392 MiB
Duration                       : 3 min 52 s
Overall bit rate               : 14.2 Mb/s
Writing application            : Lavf58.12.100
exvr                           : EX1.8.2(C1.0.9)

Video
ID                             : 1
Format                         : AVC
Format/Info                    : Advanced Video Codec
Format profile                 : High@L5.1
Format settings                : CABAC / 4 Ref Frames
Format settings, CABAC         : Yes
Format settings, Reference fra : 4 frames
Codec ID                       : avc1
Codec ID/Info                  : Advanced Video Coding
Duration                       : 3 min 52 s
Bit rate                       : 14.0 Mb/s
Width                          : 3 840 pixels
Height                         : 2 160 pixels
Display aspect ratio           : 16:9
Frame rate mode                : Constant
Frame rate                     : 23.976 (23976/1000) FPS
Color space                    : YUV
Chroma subsampling             : 4:2:0
Bit depth                      : 8 bits
Scan type                      : Progressive
Bits/(Pixel*Frame)             : 0.070
Stream size                    : 387 MiB (99%)
Color range                    : Limited
Color primaries                : BT.709
Transfer characteristics       : BT.709
Matrix coefficients            : BT.709
Codec configuration box        : avcC

Audio
ID                             : 2
Format                         : AAC LC
Format/Info                    : Advanced Audio Codec Low Complexity
Codec ID                       : mp4a-40-2
Duration                       : 3 min 52 s
Bit rate mode                  : Constant
Bit rate                       : 192 kb/s
Channel(s)                     : 2 channels
Channel layout                 : L R
Sampling rate                  : 48.0 kHz
Frame rate                     : 46.875 FPS (1024 SPF)
Compression mode               : Lossy
Stream size                    : 5.32 MiB (1%)
Default                        : Yes
Alternate group                : 1
网盘下载失效不补:链接: https://pan.baidu.com/s/1p7bsbMElM2AYWYhBxxTuhA 提取码:
****此区域为收费内容****    需支付 15 金币后可查看立即购买



.
回复

使用道具 举报

1

主题

1372

帖子

3916

积分

4K家园VIP

Rank: 9Rank: 9Rank: 9

积分
3916
发表于 2021-7-17 14:00:10 来自手机 | 显示全部楼层
4K家园不错,希望这种资源越多越好
回复 支持 反对

使用道具 举报

0

主题

1613

帖子

4447

积分

4K家园VIP

Rank: 9Rank: 9Rank: 9

积分
4447
发表于 3 天前 | 显示全部楼层
支持一下楼主发表的内容
回复 支持 反对

使用道具 举报

43

主题

1412

帖子

4042

积分

4K家园VIP

Rank: 9Rank: 9Rank: 9

积分
4042
发表于 昨天 00:53 | 显示全部楼层
元芳你怎么看?
回复 支持 反对

使用道具 举报

1

主题

1282

帖子

3698

积分

4K家园VIP

Rank: 9Rank: 9Rank: 9

积分
3698
发表于 昨天 19:27 | 显示全部楼层
试试看吧
回复 支持 反对

使用道具 举报

您需要登录后才可以回帖 登录 | 立即注册

本版积分规则

精彩图文
Archiver|手机版|TAG|Sitemap|新帖|专题|联系我们:邮箱: 4kjia.com@gmail.com   

4k家园   ©2019