[4K MV]2021 AleXa - Xtra 4k [2160P/MP4/398MB]

[复制链接]

2404

主题

2704

帖子

2万

积分

超级版主

Rank: 8Rank: 8

积分
22571
 楼主| 发表于 6 天前 | 显示全部楼层 |阅读模式
2021 AleXa - Xtra 4k.mp4_20210716_142712.978_meitu_1.jpg 2021 AleXa - Xtra 4k.mp4_20210716_142725.563_meitu_2.jpg 2021 AleXa - Xtra 4k.mp4_20210716_142731.306_meitu_3.jpg 2021 AleXa - Xtra 4k.mp4_20210716_142738.386_meitu_4.jpg 2021 AleXa - Xtra 4k.mp4_20210716_142817.730_meitu_5.jpg 2021 AleXa - Xtra 4k.mp4_20210716_142826.794_meitu_6.jpg

General
Complete name                  : E:\电影、MV\2021 AleXa - Xtra 4k.mp4
Format                         : MPEG-4
Format profile                 : Base Media
Codec ID                       : isom (isom/iso2/avc1/mp41)
File size                      : 399 MiB
Duration                       : 3 min 9 s
Overall bit rate               : 17.6 Mb/s
Writing application            : Lavf58.12.100
exvr                           : EX1.8.2(C1.0.9)

Video
ID                             : 1
Format                         : AVC
Format/Info                    : Advanced Video Codec
Format profile                 : High@L5.1
Format settings                : CABAC / 4 Ref Frames
Format settings, CABAC         : Yes
Format settings, Reference fra : 4 frames
Codec ID                       : avc1
Codec ID/Info                  : Advanced Video Coding
Duration                       : 3 min 9 s
Bit rate                       : 17.4 Mb/s
Width                          : 3 840 pixels
Height                         : 2 160 pixels
Display aspect ratio           : 16:9
Frame rate mode                : Constant
Frame rate                     : 23.976 (23976/1000) FPS
Color space                    : YUV
Chroma subsampling             : 4:2:0
Bit depth                      : 8 bits
Scan type                      : Progressive
Bits/(Pixel*Frame)             : 0.088
Stream size                    : 394 MiB (99%)
Color range                    : Limited
Color primaries                : BT.709
Transfer characteristics       : BT.709
Matrix coefficients            : BT.709
Codec configuration box        : avcC

Audio
ID                             : 2
Format                         : AAC LC
Format/Info                    : Advanced Audio Codec Low Complexity
Codec ID                       : mp4a-40-2
Duration                       : 3 min 9 s
Bit rate mode                  : Constant
Bit rate                       : 192 kb/s
Channel(s)                     : 2 channels
Channel layout                 : L R
Sampling rate                  : 48.0 kHz
Frame rate                     : 46.875 FPS (1024 SPF)
Compression mode               : Lossy
Stream size                    : 4.34 MiB (1%)
Default                        : Yes
Alternate group                : 1

提供更多【4K、8K、16K(25-120fps)】高品质MV、演示片等珍藏版视频,需要的联系本楼主。

网盘下载失效不补:链接: https://pan.baidu.com/s/1C9SpRMZgOQ5m8hmPUlv7Eg 提取码:
****此区域为收费内容****    需支付 15 金币后可查看立即购买




.
回复

使用道具 举报

1

主题

1270

帖子

3826

积分

4K家园VIP

Rank: 9Rank: 9Rank: 9

积分
3826
发表于 6 天前 | 显示全部楼层
额.....这个可以有
回复 支持 反对

使用道具 举报

2

主题

1096

帖子

3304

积分

4K家园VIP

Rank: 9Rank: 9Rank: 9

积分
3304
发表于 4 天前 来自手机 | 显示全部楼层
这个资源我记得是一套的,楼主还有没有
回复 支持 反对

使用道具 举报

2

主题

1236

帖子

3726

积分

4K家园VIP

Rank: 9Rank: 9Rank: 9

积分
3726
发表于 前天 20:55 | 显示全部楼层
楼猪V5啊
回复 支持 反对

使用道具 举报

您需要登录后才可以回帖 登录 | 立即注册

本版积分规则

精彩图文
Archiver|手机版|TAG|Sitemap|新帖|专题|联系我们:邮箱: 4kjia.com@gmail.com   

4k家园   ©2019