2021 Bling Bling - Milkshake (Performance Special Clip) 4k [2160P/MP4/401MB]

[复制链接]

2417

主题

2717

帖子

2万

积分

超级版主

Rank: 8Rank: 8

积分
22705
 楼主| 发表于 2021-7-19 12:00:00 | 显示全部楼层 |阅读模式

2021 Bling Bling - Milkshake (Performance Special Clip) 4k.mp4_20210716_144426.570.jpg 2021 Bling Bling - Milkshake (Performance Special Clip) 4k.mp4_20210716_144438.041.jpg 2021 Bling Bling - Milkshake (Performance Special Clip) 4k.mp4_20210716_144448.401.jpg 2021 Bling Bling - Milkshake (Performance Special Clip) 4k.mp4_20210716_144502.481.jpg

General
Complete name                  : E:\电影、MV\2021 Bling Bling - Milkshake (Performance Special Clip) 4k.mp4
Format                         : MPEG-4
Format profile                 : Base Media
Codec ID                       : isom (isom/iso2/avc1/mp41)
File size                      : 402 MiB
Duration                       : 3 min 12 s
Overall bit rate               : 17.5 Mb/s
Writing application            : Lavf58.12.100
exvr                           : EX1.8.2(C1.0.9)

Video
ID                             : 1
Format                         : AVC
Format/Info                    : Advanced Video Codec
Format profile                 : High@L5.1
Format settings                : CABAC / 4 Ref Frames
Format settings, CABAC         : Yes
Format settings, Reference fra : 4 frames
Format settings, GOP           : M=4, N=48
Codec ID                       : avc1
Codec ID/Info                  : Advanced Video Coding
Duration                       : 3 min 12 s
Bit rate                       : 17.3 Mb/s
Width                          : 3 840 pixels
Height                         : 2 160 pixels
Display aspect ratio           : 16:9
Frame rate mode                : Constant
Frame rate                     : 23.976 (23976/1000) FPS
Color space                    : YUV
Chroma subsampling             : 4:2:0
Bit depth                      : 8 bits
Scan type                      : Progressive
Bits/(Pixel*Frame)             : 0.087
Stream size                    : 397 MiB (99%)
Codec configuration box        : avcC

Audio
ID                             : 2
Format                         : AAC LC
Format/Info                    : Advanced Audio Codec Low Complexity
Codec ID                       : mp4a-40-2
Duration                       : 3 min 12 s
Bit rate mode                  : Constant
Bit rate                       : 192 kb/s
Channel(s)                     : 2 channels
Channel layout                 : L R
Sampling rate                  : 48.0 kHz
Frame rate                     : 46.875 FPS (1024 SPF)
Compression mode               : Lossy
Stream size                    : 4.41 MiB (1%)
Default                        : Yes
Alternate group                : 1
提供更多【4K、8K、16K(25-120fps)】高品质MV、演示片等珍藏版视频,需要的联系本楼主。

网盘下载失效不补:链接: https://pan.baidu.com/s/14wL42p3zD5le6IXqXWn5hA 提取码:
****此区域为收费内容****    需支付 15 金币后可查看立即购买



.
回复

使用道具 举报

56

主题

1449

帖子

4231

积分

4K家园VIP

Rank: 9Rank: 9Rank: 9

积分
4231
发表于 2021-7-19 12:00:05 来自手机 | 显示全部楼层
好帖必须得顶起
回复 支持 反对

使用道具 举报

51

主题

1487

帖子

4273

积分

4K家园VIP

Rank: 9Rank: 9Rank: 9

积分
4273
发表于 2021-7-19 12:48:33 | 显示全部楼层
我也顶起出售广告位
回复 支持 反对

使用道具 举报

0

主题

1242

帖子

3552

积分

4K家园VIP

Rank: 9Rank: 9Rank: 9

积分
3552
发表于 2021-7-19 17:30:34 | 显示全部楼层
介是神马?!!
回复 支持 反对

使用道具 举报

0

主题

1195

帖子

3601

积分

4K家园VIP

Rank: 9Rank: 9Rank: 9

积分
3601
发表于 2021-7-20 00:13:18 | 显示全部楼层
你们要是有4K资源记得分享,别小气
回复 支持 反对

使用道具 举报

1

主题

1234

帖子

3718

积分

4K家园VIP

Rank: 9Rank: 9Rank: 9

积分
3718
发表于 2021-7-20 08:45:27 | 显示全部楼层
路过
回复 支持 反对

使用道具 举报

您需要登录后才可以回帖 登录 | 立即注册

本版积分规则

精彩图文
Archiver|手机版|TAG|Sitemap|新帖|专题|联系我们:邮箱: 4kjia.com@gmail.com   

4k家园   ©2019