[4K MV] 2021 DRIPPIN - Free Pass 4k [2160P/MP4/398MB]

[复制链接]

2415

主题

2715

帖子

2万

积分

超级版主

Rank: 8Rank: 8

积分
22686
 楼主| 发表于 2021-7-20 14:30:00 | 显示全部楼层 |阅读模式

2021 DRIPPIN - Free Pass 4k.mp4_20210716_145837.090.jpg 2021 DRIPPIN - Free Pass 4k.mp4_20210716_145859.123.jpg 2021 DRIPPIN - Free Pass 4k.mp4_20210716_145904.961.jpg 2021 DRIPPIN - Free Pass 4k.mp4_20210716_145916.813.jpg 2021 DRIPPIN - Free Pass 4k.mp4_20210716_145923.863.jpg 2021 DRIPPIN - Free Pass 4k.mp4_20210716_145947.561.jpg
General
Complete name                  : E:\电影、MV\2021 DRIPPIN - Free Pass 4k.mp4
Format                         : MPEG-4
Format profile                 : Base Media
Codec ID                       : isom (isom/iso2/avc1/mp41)
File size                      : 398 MiB
Duration                       : 3 min 26 s
Overall bit rate               : 16.2 Mb/s
Writing application            : Lavf58.12.100
exvr                           : EX1.8.2(C1.0.9)

Video
ID                             : 1
Format                         : AVC
Format/Info                    : Advanced Video Codec
Format profile                 : High@L5.1
Format settings                : CABAC / 4 Ref Frames
Format settings, CABAC         : Yes
Format settings, Reference fra : 4 frames
Codec ID                       : avc1
Codec ID/Info                  : Advanced Video Coding
Duration                       : 3 min 26 s
Bit rate                       : 16.0 Mb/s
Width                          : 3 840 pixels
Height                         : 2 160 pixels
Display aspect ratio           : 16:9
Frame rate mode                : Constant
Frame rate                     : 23.976 (23976/1000) FPS
Color space                    : YUV
Chroma subsampling             : 4:2:0
Bit depth                      : 8 bits
Scan type                      : Progressive
Bits/(Pixel*Frame)             : 0.080
Stream size                    : 394 MiB (99%)
Color range                    : Limited
Color primaries                : BT.709
Transfer characteristics       : BT.709
Matrix coefficients            : BT.709
Codec configuration box        : avcC

Audio
ID                             : 2
Format                         : AAC LC
Format/Info                    : Advanced Audio Codec Low Complexity
Codec ID                       : mp4a-40-2
Duration                       : 3 min 26 s
Bit rate mode                  : Constant
Bit rate                       : 192 kb/s
Channel(s)                     : 2 channels
Channel layout                 : L R
Sampling rate                  : 48.0 kHz
Frame rate                     : 46.875 FPS (1024 SPF)
Compression mode               : Lossy
Stream size                    : 4.73 MiB (1%)
Default                        : Yes
Alternate group                : 1



提供更多【4K、8K、16K(25-120fps)】高品质MV、演示片等珍藏版视频,需要的联系本楼主。

网盘下载失效不补:链接: https://pan.baidu.com/s/1vq7CIxllL26RSJ7kETRwwg 提取码:
****此区域为收费内容****    需支付 15 金币后可查看立即购买



.
回复

使用道具 举报

1

主题

1271

帖子

3829

积分

4K家园VIP

Rank: 9Rank: 9Rank: 9

积分
3829
发表于 2021-7-20 14:30:05 | 显示全部楼层
体验下4K版的
回复 支持 反对

使用道具 举报

1

主题

1476

帖子

4270

积分

4K家园VIP

Rank: 9Rank: 9Rank: 9

积分
4270
发表于 2021-7-20 14:30:05 | 显示全部楼层
4K电影下个试试
回复 支持 反对

使用道具 举报

42

主题

1436

帖子

4120

积分

4K家园VIP

Rank: 9Rank: 9Rank: 9

积分
4120
发表于 2021-7-23 08:47:16 来自手机 | 显示全部楼层
鄙视楼下的顶帖没我快,哈哈
回复 支持 反对

使用道具 举报

3

主题

1288

帖子

3882

积分

4K家园VIP

Rank: 9Rank: 9Rank: 9

积分
3882
发表于 2021-7-23 11:51:44 | 显示全部楼层
正好需要啊
回复 支持 反对

使用道具 举报

2

主题

1251

帖子

3769

积分

4K家园VIP

Rank: 9Rank: 9Rank: 9

积分
3769
发表于 2021-7-23 19:20:06 | 显示全部楼层
顶起顶起顶起
回复 支持 反对

使用道具 举报

您需要登录后才可以回帖 登录 | 立即注册

本版积分规则

精彩图文
Archiver|手机版|TAG|Sitemap|新帖|专题|联系我们:邮箱: 4kjia.com@gmail.com   

4k家园   ©2019