[4K电影] 死于枪战 / Die in a Gunfight (2021) 4K高清版本下载/10.04GB

[复制链接]

746

主题

787

帖子

6788

积分

超级版主

Rank: 8Rank: 8

积分
6788
 楼主| 发表于 2021-7-16 17:26:21 | 显示全部楼层 |阅读模式
QQ图片20210716171546_副本_meitu_1.jpg

◎译  名 死于枪战/枪战之死
◎片  名 Die in a Gunfight
◎年  代 2021
◎产  地 美国
◎类  别 喜剧 / 动作 / 爱情 / 犯罪
◎语  言 英语
◎上映日期 2021-07-01(俄罗斯)
◎豆瓣评分 4.2/10 from 97 users
◎豆瓣链接 https://movie.douban.com/subject/6872950/
◎片  长 92分钟
◎导  演 科林·希夫利 Collin Schiffli
◎编  剧 安德鲁·贝伦 Andrew Barrer / 加百利·法拉利 Gabriel Ferrari
◎主  演 迪耶戈·博内塔 Diego Boneta
      亚历珊德拉·达达里奥 Alexandra Daddario
      崔维斯·费米尔 Travis Fimmel
      贾斯汀·查特文 Justin Chatwin
      比利·克鲁德普 Billy Crudup
      埃曼纽尔·施莱琪 Emmanuelle Chriqui
      尼古拉·科雷亚·达姆得 Nicola Correia Damude
      约翰·拉尔斯顿 John Ralston
      米歇尔·诺尔顿 Michelle Nolden
      斯图尔特·休斯 Stuart Hughes
      约翰·腾奇 John Tench
      蕾妮·威利特 Renée Willett
      高莉莉 Lily Gao
      奥立薇娅·玛恩 Olivia Munn
      海伦·亨特 Helen Hunt
      大卫·达斯马齐连 David Dastmalchian


◎简  介

  一位年轻的纽约人爱上了他父亲的死敌的女儿,引发了一段罗密欧和朱丽叶式的禁忌恋情。
Video
ID : 1
Format : HEVC
Format/Info : High Efficiency Video Coding
Format profile : Main 10@L5@High
Codec ID : V_MPEGH/ISO/HEVC
Duration : 1 h 32 min
Bit rate : 11.8 Mb/s
Width : 3 828 pixels
Height : 1 592 pixels
Display aspect ratio : 2.40:1
Frame rate mode : Constant
Frame rate : 23.976 (23976/1000/189150) FPS
Color space : YUV
Chroma subsampling : 4:2:0
Bit depth : 10 bits
Bits/(Pixel*Frame) : 0.081
Stream size : 7.63 GiB (76%)
Default : Yes
Forced : No
Color range : Limited
Color primaries : BT.709
Transfer characteristics : BT.709
Matrix coefficients : BT.709

Audio #1
ID : 2
Format : DTS XLL
Format/Info : Digital Theater Systems
Commercial name : DTS-HD Master Audio
Codec ID : A_DTS
Duration : 1 h 32 min
Bit rate mode : Variable
Bit rate : 3 310 kb/s
Channel(s) : 6 channels
Channel layout : C L R Ls Rs LFE
Sampling rate : 48.0 kHz
Frame rate : 93.750 FPS (512 SPF)
Bit depth : 24 bits
Compression mode : Lossless
Stream size : 2.13 GiB (21%)
Title : DTS-HD MA 5.1
Language : English
Default : Yes
Forced : No

Audio #2
ID : 3
Format : AC-3
Format/Info : Audio Coding 3
Commercial name : Dolby Digital
Codec ID : A_AC3
Duration : 1 h 32 min
Bit rate mode : Constant
Bit rate : 384 kb/s
Channel(s) : 6 channels
Channel layout : L R C LFE Ls Rs
Sampling rate : 48.0 kHz
Frame rate : 31.250 FPS (1536 SPF)
Compression mode : Lossy
Stream size : 253 MiB (2%)
Title : DD 5.1
Language : English
Service kind : Complete Main
Default : No
Forced : No

Text #1
ID : 4
Format : UTF-8
Codec ID : S_TEXT/UTF8
Codec ID/Info : UTF-8 Plain Text
Duration : 1 h 28 min
Bit rate : 56 b/s
Count of elements : 1142
Stream size : 36.6 KiB (0%)
Title : SRT
Language : English
Default : Yes
Forced : No

Text #2
ID : 5
Format : PGS
Muxing mode : zlib
Codec ID : S_HDMV/PGS
Codec ID/Info : Picture based subtitle format used on BDs/HD-DVDs
Duration : 1 h 28 min
Bit rate : 39.3 kb/s
Count of elements : 2550
Stream size : 24.9 MiB (0%)
Language : English
Default : No
Forced : No

Text #3
ID : 6
Format : PGS
Muxing mode : zlib
Codec ID : S_HDMV/PGS
Codec ID/Info : Picture based subtitle format used on BDs/HD-DVDs
Duration : 1 h 31 min
Bit rate : 33.0 kb/s
Count of elements : 2144
Stream size : 21.5 MiB (0%)
Title : Latin American
Language : Spanish
Default : No
Forced : No

Menu
00:00:00.000 : Chapter 01
00:03:25.664 : Chapter 02
00:13:18.631 : Chapter 03
00:16:12.638 : Chapter 04
00:24:09.281 : Chapter 05
00:28:33.170 : Chapter 06
00:35:19.993 : Chapter 07
00:38:37.899 : Chapter 08
00:44:13.109 : Chapter 09
00:47:35.186 : Chapter 10
00:55:41.463 : Chapter 11
00:58:39.725 : Chapter 12
01:02:52.477 : Chapter 13
01:08:55.798 : Chapter 14
01:13:28.362 : Chapter 15
01:22:39.163 : Chapter 16
迅雷下载资源速度为零,资源敏感和谐时,推荐使用qBittorrent等下载软件,有条件的推荐115更好的下载软件!


游客,如果您要查看本帖隐藏内容请回复



.
回复

使用道具 举报

1

主题

1240

帖子

3542

积分

4K家园VIP

Rank: 9Rank: 9Rank: 9

积分
3542
发表于 2021-7-16 17:26:25 | 显示全部楼层
有空一起交流一下
回复 支持 反对

使用道具 举报

0

主题

5576

帖子

1万

积分

4K家园VIP

Rank: 9Rank: 9Rank: 9

积分
13263
发表于 2021-7-16 18:15:06 | 显示全部楼层
太好啦&萬分感謝版主的無私發佈分享%
回复 支持 反对

使用道具 举报

57

主题

1448

帖子

4194

积分

4K家园VIP

Rank: 9Rank: 9Rank: 9

积分
4194
发表于 2021-7-16 22:00:21 来自手机 | 显示全部楼层
小白一个 顶一下
回复 支持 反对

使用道具 举报

2

主题

1245

帖子

3555

积分

4K家园VIP

Rank: 9Rank: 9Rank: 9

积分
3555
发表于 2021-7-16 23:43:33 | 显示全部楼层
试试先,好用再说
回复 支持 反对

使用道具 举报

0

主题

10

帖子

246

积分

新手上路

Rank: 1

积分
246
发表于 2021-7-17 11:39:12 | 显示全部楼层
谢谢分享
回复

使用道具 举报

0

主题

1

帖子

6

积分

新手上路

Rank: 1

积分
6
发表于 2021-7-17 19:04:30 来自手机 | 显示全部楼层
#ddddddddddd
回复 支持 反对

使用道具 举报

1

主题

1256

帖子

3598

积分

4K家园VIP

Rank: 9Rank: 9Rank: 9

积分
3598
发表于 2021-7-19 07:00:32 来自手机 | 显示全部楼层
为了三千积分!
回复 支持 反对

使用道具 举报

3

主题

1315

帖子

3779

积分

中级会员

Rank: 4

积分
3779
发表于 2021-7-19 08:11:52 | 显示全部楼层
正好需要啊
回复 支持 反对

使用道具 举报

0

主题

4

帖子

22

积分

新手上路

Rank: 1

积分
22
发表于 2021-7-22 18:41:40 | 显示全部楼层
666666666
回复

使用道具 举报

您需要登录后才可以回帖 登录 | 立即注册

本版积分规则

精彩图文
Archiver|手机版|TAG|Sitemap|新帖|专题|联系我们:邮箱: 4kjia.com@gmail.com   

4k家园   ©2019