[4K电影] 空中大灌篮:新传奇 (2021) 4K高清版本下载/15.00GB

  [复制链接]

746

主题

787

帖子

6788

积分

超级版主

Rank: 8Rank: 8

积分
6788
 楼主| 发表于 2021-7-16 17:44:49 | 显示全部楼层 |阅读模式
本帖最后由 最爱4K哟 于 2021-7-17 09:00 编辑

QQ图片20210716173625_副本_meitu_2.jpg

◎译  名 空中大灌篮:新传奇/Space Jam 2: A Jogada Continua/Space Jam 2008/Space Jam Twenty 16/太空也入樽:改朝换代(港)/太空也入樽2(港)/宇宙大灌篮:新传承/宇宙大灌篮2/怪物奇兵 全新世代(台)/怪物奇兵2/空中大灌篮2:新传奇
◎片  名 Space Jam: A New Legacy
◎年  代 2021
◎产  地 美国
◎类  别 喜剧 / 动画 / 运动
◎语  言 英语
◎上映日期 2021-07-16(美国)
◎豆瓣评分 /10 from 0 users
◎豆瓣链接 https://movie.douban.com/subject/25834936/
◎片  长 120分钟
◎导  演 马尔科姆·D·李 Malcolm D. Lee
◎编  剧 朱埃尔·泰勒 Juel Taylor / 特伦斯·南斯 Terence Nance / 蒂莫西·哈里斯 Timothy Harris / 史蒂夫·鲁德尼克 Steve Rudnick / 赫舍尔·魏因格罗德 Herschel Weingrod / 莱奥·本韦努蒂 Leo Benvenuti / 阿尔弗雷多·博泰洛 Alfredo Botello / 安德鲁·道奇 Andrew Dodge / 查克·琼斯 Chuck Jones / 林诣彬 Justin Lin / 威利?埃伯索尔 Willie Ebersol / 基南·库格勒 Keenan Coogler
◎主  演 勒布朗·詹姆斯 LeBron James
      赞达亚 Zendaya
      吉姆·卡明斯 Jim Cummings
      索尼夸·马丁-格林 Sonequa Martin-Green
      唐·钱德尔 Don Cheadle
      弗雷德·塔特西奥 Fred Tatasciore
      特蕾丝·麦克尼尔 Tress MacNeille
      马丁·科勒巴 Martin Klebba
      加布里埃尔·伊格莱西亚斯 Gabriel Iglesias
      豪莎·罗克莫雷 Xosha Roquemore
      艾瑞克·鲍扎 Eric Bauza
      鲍伯·伯根 Bob Bergen
      杰夫·伯格曼 Jeff Bergman
      坎迪·米洛 Candi Milo
      克里斯·戴维斯 Khris Davis
      凯蒂·麦克凯布 Katie McCabe
      斯凯勒·拜布尔 Skyler Bible
      克里斯·保罗 Chris Paul
       Peter Cornell
      克莱·汤普森 Klay Thompson
      德雷蒙德·格林 Draymond Green
      Hassan Said Hassan Said
      Erin Flannery Erin Flannery
      德里克?吉尔伯特 Derrick Gilbert
      G·莱恩·希尔曼 G. Lane Hillman
      卡桑德拉·斯塔尔 Cassandra Starr


◎简  介

  故事讲述勒布朗与他的小儿子多姆被人工智能困在了“华纳兄弟电影宇宙”虚拟空间,为了能安全回家,他必须率兔八哥、罗拉兔和那些不守规矩的乐一通卡通,战胜一支全明星篮球队。这场对决是勒布朗人生的最大挑战,也将重新定义他与儿子间的关系,并让勒布朗领悟到“做自己”的真谛;乐一通的小伙伴们则要打破陈规,超常发挥自己的独特技能,令勒布朗都刮目相看。然而他们面对的,是一群前所未见、所向披靡的人工智能强化型对手“末日狂徒队”,勒布朗和乐一通们真的能成功击败他们吗?
Video
ID : 1
Format : HEVC
Format/Info : High Efficiency Video Coding
Format profile : Main 10@L5@Main
HDR format : SMPTE ST 2086, HDR10 compatible
Codec ID : V_MPEGH/ISO/HEVC
Duration : 1 h 55 min
Bit rate : 17.8 Mb/s
Width : 3 840 pixels
Height : 2 160 pixels
Display aspect ratio : 16:9
Frame rate mode : Constant
Frame rate : 23.976 (24000/1001/189150) FPS
Color space : YUV
Chroma subsampling : 4:2:0
Bit depth : 10 bits
Bits/(Pixel*Frame) : 0.090
Stream size : 14.4 GiB (96%)
Writing library : x265 3.4hy:[Linux][GCC 7.5.0][64 bit] 10bit
Encoding settings : cpuid=1111039 / frame-threads=1 / wpp / no-pmode / no-pme / no-psnr / no-ssim / log-level=2 / input-csp=1 / input-res=3840x2160 / interlace=0 / total-frames=0 / level-idc=0 / high-tier=1 / uhd-bd=0 / ref=4 / no-allow-non-conformance / repeat-headers / annexb / no-aud / no-hrd / info / hash=0 / no-temporal-layers / no-open-gop / min-keyint=96 / keyint=96 / gop-lookahead=0 / bframes=3 / b-adapt=2 / b-pyramid / bframe-bias=0 / rc-lookahead=25 / lookahead-slices=4 / scenecut=40 / hist-scenecut=0 / radl=0 / no-splice / no-intra-refresh / ctu=64 / min-cu-size=8 / rect / no-amp / max-tu-size=32 / tu-inter-depth=1 / tu-intra-depth=1 / limit-tu=0 / rdoq-level=2 / dynamic-rd=0.00 / no-ssim-rd / signhide / no-tskip / nr-intra=0 / nr-inter=0 / no-constrained-intra / strong-intra-smoothing / max-merge=3 / limit-refs=3 / limit-modes / me=3 / subme=3 / merange=57 / temporal-mvp / no-frame-dup / no-hme / weightp / no-weightb / no-analyze-src-pics / deblock=0:0 / sao / no-sao-non-deblock / rd=4 / selective-sao=4 / no-early-skip / rskip / no-fast-intra / no-tskip-fast / no-cu-lossless / no-b-intra / no-splitrd-skip / rdpenalty=0 / psy-rd=2.00 / psy-rdoq=1.00 / no-rd-refine / no-lossless / cbqpoffs=0 / crqpoffs=0 / rc=abr / bitrate=18000 / qcomp=0.60 / qpstep=4 / stats-write=0 / stats-read=2 / cplxblur=20.0 / qblur=0.5 / vbv-maxrate=24500 / vbv-bufsize=24500 / vbv-init=0.6 / vbv-end=0.6 / vbv-end-fr-adj=0.0 / ipratio=1.40 / pbratio=1.30 / aq-mode=2 / aq-strength=1.00 / cutree / zone-count=0 / no-strict-cbr / qg-size=32 / no-rc-grain / qpmax=69 / qpmin=0 / no-const-vbv / sar=0 / overscan=0 / videoformat=5 / range=0 / colorprim=9 / transfer=16 / colormatrix=9 / chromaloc=0 / display-window=0 / master-display=G(13250,34500)B(7500,3000)R(34000,16000)WP(15635,16450)L(10000000,1) / cll=677,233 / min-luma=0 / max-luma=1023 / log2-max-poc-lsb=8 / vui-timing-info / vui-hrd-info / no-concatenation / slices=1 / no-opt-qp-pps / no-opt-ref-list-length-pps / no-multi-pass-opt-rps / scenecut-bias=0.05 / hist-threshold=0.01 / no-opt-cu-delta-qp / no-aq-motion / hdr10 / no-hdr10-opt / no-dhdr10-opt / no-idr-recovery-sei / analysis-reuse-level=0 / analysis-save-reuse-level=0 / analysis-load-reuse-level=0 / scale-factor=0 / refine-intra=0 / refine-inter=0 / refine-mv=1 / refine-ctu-distortion=0 / no-limit-sao / ctu-info=0 / no-lowpass-dct / refine-analysis-type=0 / copy-pic=1 / max-ausize-factor=1.0 / no-dynamic-refine / no-single-sei / no-hevc-aq / no-svt / no-field / qp-adaptation-range=1.00 / no-scenecut-aware-qpconformance-window-offsets / right=0 / bottom=0 / decoder-max-rate=0
Default : Yes
Forced : No
Color range : Limited
Color primaries : BT.2020
Transfer characteristics : PQ
Matrix coefficients : BT.2020 non-constant
Mastering display color primaries : Display P3
Mastering display luminance : min: 0.0001 cd/m2, max: 1000 cd/m2
Maximum Content Light Level : 677 cd/m2
Maximum Frame-Average Light Level : 233 cd/m2

Audio
ID : 2
Format : E-AC-3 JOC
Format/Info : Enhanced AC-3 with Joint Object Coding
Commercial name : Dolby Digital Plus with Dolby Atmos
Codec ID : A_EAC3
Duration : 1 h 55 min
Bit rate mode : Constant
Bit rate : 768 kb/s
Channel(s) : 6 channels
Channel layout : L R C LFE Ls Rs
Sampling rate : 48.0 kHz
Frame rate : 31.250 FPS (1536 SPF)
Compression mode : Lossy
Stream size : 634 MiB (4%)
Title : English
Language : English
Service kind : Complete Main
Default : No
Forced : No
Complexity index : 16
Number of dynamic objects : 15
Bed channel count : 1 channel
Bed channel configuration : LFE

Text #1
ID : 3
Format : UTF-8
Codec ID : S_TEXT/UTF8
Codec ID/Info : UTF-8 Plain Text
Duration : 1 h 55 min
Bit rate : 67 b/s
Count of elements : 2266
Stream size : 57.0 KiB (0%)
Title : English
Language : English
Default : No
Forced : No

Text #2
ID : 4
Format : UTF-8
Codec ID : S_TEXT/UTF8
Codec ID/Info : UTF-8 Plain Text
Duration : 1 h 55 min
Bit rate : 89 b/s
Count of elements : 2654
Stream size : 75.1 KiB (0%)
Title : English [SDH]
Language : English
Default : No
Forced : No

迅雷下载资源速度为零,资源敏感和谐时,推荐使用qBittorrent等下载软件,有条件的推荐115更好的下载软件!


游客,如果您要查看本帖隐藏内容请回复

游客,如果您要查看本帖隐藏内容请回复

游客,如果您要查看本帖隐藏内容请回复

游客,如果您要查看本帖隐藏内容请回复




.
回复

使用道具 举报

4

主题

1203

帖子

3629

积分

4K家园VIP

Rank: 9Rank: 9Rank: 9

积分
3629
发表于 2021-7-16 17:44:53 来自手机 | 显示全部楼层
路过 帮顶 嘿嘿
回复 支持 反对

使用道具 举报

0

主题

5576

帖子

1万

积分

4K家园VIP

Rank: 9Rank: 9Rank: 9

积分
13263
发表于 2021-7-16 18:14:44 | 显示全部楼层
太好啦&萬分感謝版主的無私發佈分享%
回复 支持 反对

使用道具 举报

0

主题

2

帖子

12

积分

新手上路

Rank: 1

积分
12
发表于 2021-7-16 19:01:21 来自手机 | 显示全部楼层
wocsnnsnsnsn
回复 支持 反对

使用道具 举报

1

主题

1307

帖子

3729

积分

4K家园VIP

Rank: 9Rank: 9Rank: 9

积分
3729
发表于 2021-7-16 19:35:16 | 显示全部楼层
广告位,,坐下看看
回复 支持 反对

使用道具 举报

0

主题

4

帖子

45

积分

4K家园VIP

Rank: 9Rank: 9Rank: 9

积分
45
发表于 2021-7-17 01:58:50 来自手机 | 显示全部楼层
帮顶路过
回复

使用道具 举报

0

主题

89

帖子

546

积分

新手上路

Rank: 1

积分
546
发表于 2021-7-17 12:46:00 | 显示全部楼层
谢谢楼主分享
回复 支持 反对

使用道具 举报

0

主题

1

帖子

10

积分

新手上路

Rank: 1

积分
10
发表于 2021-7-17 13:31:14 | 显示全部楼层
6666666666666666
回复 支持 反对

使用道具 举报

0

主题

2

帖子

9

积分

新手上路

Rank: 1

积分
9
发表于 2021-7-17 16:37:19 | 显示全部楼层
谢谢分享
回复

使用道具 举报

0

主题

3

帖子

28

积分

新手上路

Rank: 1

积分
28
发表于 2021-7-17 16:37:44 | 显示全部楼层
666666666666
回复 支持 反对

使用道具 举报

您需要登录后才可以回帖 登录 | 立即注册

本版积分规则

精彩图文
Archiver|手机版|TAG|Sitemap|新帖|专题|联系我们:邮箱: 4kjia.com@gmail.com   

4k家园   ©2019