[4K电影] 人类清除计划5/The Forever Purge (2021)4K高清下载/17.00GB

  [复制链接]

872

主题

927

帖子

7970

积分

超级版主

Rank: 8Rank: 8

积分
7970
 楼主| 发表于 2021-7-17 15:04:08 | 显示全部楼层 |阅读模式
本帖最后由 最爱4K哟 于 2021-7-19 09:52 编辑

999.jpg                                   400 (2).jpg 400.jpg

◎译  名 人类清除计划5/人类清除计划:自由永恒/人类清除计划完结篇/国定杀戮日:无限狂屠(港)
◎片  名 The Forever Purge
◎年  代 2021
◎产  地 美国
◎类  别 科幻 / 惊悚 / 犯罪
◎语  言 英语
◎上映日期 2021-07-02(美国)
◎IMDb评分  5.7/10 from 3123 users
◎IMDb链接  https://www.imdb.com/title/tt10327252/
◎豆瓣评分 6.8/10 from 136 users
◎豆瓣链接 https://movie.douban.com/subject/33446014/
◎片  长 103分钟
◎导  演 埃弗拉多·瓦莱里奥·古特 Everardo Valerio Gout
◎编  剧 詹姆斯·德莫纳克 James DeMonaco
◎主  演 安娜·德拉·雷古拉 Ana de la Reguera
      特诺切·韦尔塔 Tenoch Huerta
      乔什·卢卡斯 Josh Lucas
      卡西迪·弗里曼 Cassidy Freeman
      莱文·兰宾 Leven Rambin
      亚历杭德罗·埃达 Alejandro Edda
      威尔·帕顿 Will Patton
      格雷戈里·萨拉戈萨 Gregory Zaragoza
      萨米·罗蒂比 Sammi Rotibi
      威尔·布里顿 Will Brittain
      加里·诺希利 Gary Nohealii
       Joe Williams
      拉桑德拉·吉布森 LaSaundra Gibson
      霍普·劳伦 Hope Lauren
      科达·贝泽尔 Coda Boesel
      肖·琼斯 Shaw Jones
      乔治·杜威 Jeffrey Doornbos
      维罗尼卡·法尔孔 Veronica Falcón
      马克·克雷尼克 Mark Krenik
      苏西·阿布罗梅特 Susie Abromeit
      安东尼·莫利纳利 Anthony Molinari
      斯科特·道格拉斯麦·克拉克伦 Scott MacLachlan


◎简  介

  故事紧接《人类清除计划3》。从贩毒集团手中脱逃的阿德拉与丈夫胡安自墨西哥来到美国得克萨斯州生活,后者在塔克家族的牧场工作。胡安深受塔克一家的族长,凯莱布的赏识,但这也让凯莱布之子迪伦心生妒忌。但在一年一度的“人类清除计划”过后的早上,一支地下组织意图将杀戮继续进行下去,让全美陷入狂乱之中。包括迪伦妻子和妹妹在内的塔克一家也遭受波及,迫使众人联合起来对付暴徒,并设法逃入开放边境仅有六小时的墨西哥。
General
Complete name                  : E:\4K@电影  4K@MV\The.Forever.Purge.2021.HDR.2160p.WEB-DL.DD5.1.HEVC-EVO.mkv
Format                         : Matroska
Format version                 : Version 4
File size                      : 17.0 GiB
Duration                       : 1 h 43 min
Overall bit rate               : 23.5 Mb/s
Movie name                     : EVO
Encoded date                   : UTC 2021-07-17 02:20:01
Writing application            : mkvmerge v49.0.0 ('Sick Of Losing Soulmates') 64-bit
Writing library                : libebml v1.4.0 + libmatroska v1.6.1

Video
ID                             : 1
Format                         : HEVC
Format/Info                    : High Efficiency Video Coding
Format profile                 : Main 10@L5@High
HDR format                     : SMPTE ST 2086, HDR10 compatible
Codec ID                       : V_MPEGH/ISO/HEVC
Duration                       : 1 h 43 min
Bit rate                       : 22.7 Mb/s
Width                          : 3 840 pixels
Height                         : 2 078 pixels
Display aspect ratio           : 1.85:1
Frame rate mode                : Constant
Frame rate                     : 23.976 (24000/1001) FPS
Color space                    : YUV
Chroma subsampling             : 4:2:0 (Type 2)
Bit depth                      : 10 bits
Bits/(Pixel*Frame)             : 0.118
Stream size                    : 16.4 GiB (96%)
Default                        : Yes
Forced                         : No
Color range                    : Limited
Color primaries                : BT.2020
Transfer characteristics       : PQ
Matrix coefficients            : BT.2020 non-constant
Mastering display color primar : Display P3
Mastering display luminance    : min: 0.0050 cd/m2, max: 1000 cd/m2
Maximum Content Light Level    : 1049 cd/m2
Maximum Frame-Average Light Le : 500 cd/m2

Audio
ID                             : 2
Format                         : AC-3
Format/Info                    : Audio Coding 3
Commercial name                : Dolby Digital
Codec ID                       : A_AC3
Duration                       : 1 h 43 min
Bit rate mode                  : Constant
Bit rate                       : 384 kb/s
Channel(s)                     : 6 channels
Channel layout                 : L R C LFE Ls Rs
Sampling rate                  : 48.0 kHz
Frame rate                     : 31.250 FPS (1536 SPF)
Compression mode               : Lossy
Stream size                    : 284 MiB (2%)
Title                          : English
Language                       : English
Service kind                   : Complete Main
Default                        : Yes
Forced                         : No

Text #1
ID                             : 3
Format                         : UTF-8
Codec ID                       : S_TEXT/UTF8
Codec ID/Info                  : UTF-8 Plain Text
Title                          : English [Forced]
Language                       : English
Default                        : No
Forced                         : Yes

Text #2
ID                             : 4
Format                         : UTF-8
Codec ID                       : S_TEXT/UTF8
Codec ID/Info                  : UTF-8 Plain Text
Title                          : English [Full]
Language                       : English
Default                        : No
Forced                         : No

Menu
00:00:00.000                   : Scene 1
00:04:59.966                   : Scene 2
00:11:22.766                   : Scene 3
00:18:09.464                   : Scene 4
00:23:43.173                   : Scene 5
00:29:00.407                   : Scene 6
00:36:27.604                   : Scene 7
00:42:38.183                   : Scene 8
00:45:31.147                   : Scene 9
00:52:23.852                   : Scene 10
01:00:30.588                   : Scene 11
01:05:46.321                   : Scene 12
01:12:46.783                   : Scene 13
01:18:10.023                   : Scene 14
01:25:18.660                   : Scene 15
01:32:07.902                   : Scene 16

迅雷下载资源速度为零,资源敏感和谐时,推荐使用qBittorrent等下载软件,有条件的推荐115更好的下载软件!

****此区域为收费内容****    需支付 9 金币后可查看立即购买

游客,如果您要查看本帖隐藏内容请回复


.


567.jpg

上一篇:空中大灌篮:新传奇 (2021) 4K高清版本下载/15.00GB
下一篇:火药奶昔 / Gunpowder Milkshake (2021) 4K高清下载/20.41GB
回复

使用道具 举报

56

主题

1400

帖子

4034

积分

4K家园VIP

Rank: 9Rank: 9Rank: 9

积分
4034
发表于 2021-7-17 15:04:18 来自手机 | 显示全部楼层
试试看吧
回复 支持 反对

使用道具 举报

53

主题

1178

帖子

3600

积分

4K家园VIP

Rank: 9Rank: 9Rank: 9

积分
3600
发表于 2021-7-17 15:04:18 | 显示全部楼层
是爷们的娘们的都帮顶!大力支持
回复 支持 反对

使用道具 举报

0

主题

5838

帖子

1万

积分

4K家园VIP

Rank: 9Rank: 9Rank: 9

积分
13919
发表于 2021-7-17 16:58:35 | 显示全部楼层
太好啦&萬分感謝版主的無私發佈分享%
回复 支持 反对

使用道具 举报

3

主题

1323

帖子

3815

积分

4K家园VIP

Rank: 9Rank: 9Rank: 9

积分
3815
发表于 2021-7-17 17:29:56 | 显示全部楼层
小白一个 顶一下
回复 支持 反对

使用道具 举报

0

主题

3

帖子

19

积分

新手上路

Rank: 1

积分
19
发表于 2021-7-17 17:32:38 | 显示全部楼层
不知道有没有9个金币
回复 支持 反对

使用道具 举报

0

主题

7

帖子

39

积分

新手上路

Rank: 1

积分
39
发表于 2021-7-17 18:02:09 | 显示全部楼层

试试看吧
回复

使用道具 举报

2

主题

1277

帖子

3847

积分

4K家园VIP

Rank: 9Rank: 9Rank: 9

积分
3847
发表于 2021-7-17 20:54:24 | 显示全部楼层
鼎力支持!!
回复 支持 反对

使用道具 举报

0

主题

1

帖子

9

积分

新手上路

Rank: 1

积分
9
发表于 2021-7-17 21:42:50 | 显示全部楼层
鼎力支持!!
回复

使用道具 举报

0

主题

27

帖子

202

积分

4K家园VIP

Rank: 9Rank: 9Rank: 9

积分
202
QQ
发表于 2021-7-17 21:52:19 | 显示全部楼层
666666666666666
回复 支持 反对

使用道具 举报

您需要登录后才可以回帖 登录 | 立即注册

本版积分规则

精彩图文
Archiver|手机版|TAG|Sitemap|新帖|专题|联系我们:邮箱: 4kjia.com@gmail.com   

4k家园   ©2019