[4K电影] 火药奶昔 / Gunpowder Milkshake (2021) 4K高清下载/20.41GB

[复制链接]

2415

主题

2715

帖子

2万

积分

超级版主

Rank: 8Rank: 8

积分
22686
 楼主| 发表于 2021-7-17 20:41:54 | 显示全部楼层 |阅读模式
本帖最后由 叽里呱啦 于 2021-7-17 20:43 编辑

QQ图片20210717203719_副本_meitu_1.jpg

◎译  名 火药奶昔/Bloody Milkshake
◎片  名 Gunpowder Milkshake
◎年  代 2021
◎产  地 法国,美国,德国
◎类  别 动作 / 惊悚 / 冒险
◎语  言 英语
◎上映日期 2021-07-14(美国)◎IMDb评分  5.8/10 from 4569 users
◎IMDb链接  https://www.imdb.com/title/tt8368408/
◎豆瓣评分 5.8/10 from 778 users
◎豆瓣链接 https://movie.douban.com/subject/30425275/
◎导  演 纳沃特·帕普莎多 Navot Papushado
◎编  剧 纳沃特·帕普莎多 Navot Papushado
◎主  演 凯伦·吉兰 Karen Gillan
      琳娜·海蒂 Lena Headey
      卡拉·古奇诺 Carla Gugino
      杨紫琼 Michelle Yeoh
      安吉拉·贝塞特 Angela Bassett
      保罗·吉亚玛提 Paul Giamatti
      拉尔夫·伊内森 Ralph Ineson
      弗蕾娅·艾伦 Freya Allan
      克洛伊·科尔曼 Chloe Coleman
      罗伯特?马瑟 Robert Maaser
      亚当·那加提斯 Adam Nagaitis
      塞缪尔·安德森 Samuel Anderson
      乔梅杨 Mai Duong Kieu
      杰克·班戴拉 Jack Bandeira
      约书亚·格罗斯 Joshua Grothe
      艾德·伯奇 Ed Birch
      大卫·齐梅尔席德 David Zimmerschied
      安妮塔·欧拉藤吉 Anita Olatunji
      乔安娜·波宾 Joanna Bobin


◎简  介

  凯伦·吉兰(《复仇者联盟4》)、杨紫琼、琳娜·海蒂(《权力的游戏》)、安吉拉·贝塞特(《黑豹》)将联袂出演全女性卡司动作惊悚片《火药奶昔》,亚伦·凯莎莱斯和纳沃特·帕普莎多(《大坏狼》)执导,两人同Ehud Lavski编写剧本,金牌动作片制作人Andrew Rona和Alex Heineman(《空中营救》《通勤营救》)担任制片。

  影片讲述了跨越三代人的女性杀手故事。斯嘉丽(海蒂 饰)是一名专业杀手,为了保护幼女伊娃(吉兰 饰)的安全,她将女儿托付给老友,隐姓埋名。多年后,伊娃走上了母亲的老路,成为冷血无情的刺客。在一次行动中,伊娃不慎让事态失控,令无辜的八岁小女孩陷入险境。伊娃于心不忍,为了救人,只能背叛组织。命运最终让母女重逢,她们联合其他退休的女杀手,一起向夺走了她们一切的杀手组织发起复仇。

Video
ID : 1
Format : HEVC
Format/Info : High Efficiency Video Coding
Format profile : Main@L5.1@High
Codec ID : V_MPEGH/ISO/HEVC
Duration : 1 h 54 min
Bit rate : 24.7 Mb/s
Width : 3 840 pixels
Height : 1 610 pixels
Display aspect ratio : 2.40:1
Frame rate mode : Constant
Frame rate : 24.000 FPS
Color space : YUV
Chroma subsampling : 4:2:0 (Type 2)
Bit depth : 8 bits
Bits/(Pixel*Frame) : 0.166
Stream size : 19.8 GiB (97%)
Writing library : x265 3.5+10-82786fccc:[Windows][GCC 11.1.0][64 bit] 8bit+10bit+12bit
Encoding settings : cpuid=1111039 / frame-threads=4 / numa-pools=24 / wpp / no-pmode / no-pme / no-psnr / ssim / log-level=2 / input-csp=1 / input-res=3840x1610 / interlace=0 / total-frames=165316 / level-idc=51 / high-tier=1 / uhd-bd=0 / ref=4 / no-allow-non-conformance / repeat-headers / annexb / no-aud / no-eob / no-eos / hrd / info / hash=0 / no-temporal-layers / no-open-gop / min-keyint=5 / keyint=240 / gop-lookahead=0 / bframes=8 / b-adapt=2 / b-pyramid / bframe-bias=0 / rc-lookahead=72 / lookahead-slices=0 / scenecut=40 / hist-scenecut=0 / radl=0 / no-splice / no-intra-refresh / ctu=64 / min-cu-size=8 / no-rect / no-amp / max-tu-size=32 / tu-inter-depth=1 / tu-intra-depth=1 / limit-tu=0 / rdoq-level=2 / dynamic-rd=0.00 / no-ssim-rd / signhide / no-tskip / nr-intra=0 / nr-inter=0 / no-constrained-intra / no-strong-intra-smoothing / max-merge=4 / limit-refs=3 / no-limit-modes / me=3 / subme=5 / merange=48 / temporal-mvp / no-frame-dup / hme / Level / merange / L0,L1,L2=16,32,48 / weightp / weightb / no-analyze-src-pics / deblock=-3:-3 / no-sao / no-sao-non-deblock / rd=4 / selective-sao=0 / no-early-skip / rskip / no-fast-intra / no-tskip-fast / no-cu-lossless / b-intra / no-splitrd-skip / rdpenalty=0 / psy-rd=2.00 / psy-rdoq=1.00 / no-rd-refine / no-lossless / cbqpoffs=0 / crqpoffs=0 / rc=crf / crf=20.0 / qcomp=0.65 / qpstep=4 / stats-write=0 / stats-read=0 / vbv-maxrate=160000 / vbv-bufsize=160000 / vbv-init=0.9 / min-vbv-fullness=50.0 / max-vbv-fullness=80.0 / crf-max=0.0 / crf-min=0.0 / ipratio=1.35 / pbratio=1.25 / aq-mode=2 / aq-strength=0.80 / no-cutree / zone-count=1 / zones: / start-frame=157847 / end-frame=165315 / qp=40 / no-strict-cbr / qg-size=32 / no-rc-grain / qpmax=69 / qpmin=0 / no-const-vbv / sar=1 / overscan=0 / videoformat=5 / range=0 / colorprim=1 / transfer=1 / colormatrix=1 / chromaloc=1 / chromaloc-top=2 / chromaloc-bottom=2 / display-window=0 / cll=0,0 / min-luma=0 / max-luma=1023 / log2-max-poc-lsb=8 / vui-timing-info / vui-hrd-info / slices=1 / no-opt-qp-pps / no-opt-ref-list-length-pps / no-multi-pass-opt-rps / scenecut-bias=0.05 / hist-threshold=0.03 / no-opt-cu-delta-qp / no-aq-motion / no-hdr10 / no-hdr10-opt / no-dhdr10-opt / no-idr-recovery-sei / analysis-reuse-level=0 / analysis-save-reuse-level=0 / analysis-load-reuse-level=0 / scale-factor=0 / refine-intra=0 / refine-inter=0 / refine-mv=1 / refine-ctu-distortion=0 / no-limit-sao / ctu-info=0 / no-lowpass-dct / refine-analysis-type=0 / copy-pic=1 / max-ausize-factor=1.0 / no-dynamic-refine / no-single-sei / no-hevc-aq / no-svt / no-field / qp-adaptation-range=1.00 / scenecut-aware-qp=0conformance-window-offsets / right=0 / bottom=0 / decoder-max-rate=0 / no-vbv-live-multi-pass
Default : Yes
Forced : No
Color range : Limited
Color primaries : BT.709
Transfer characteristics : BT.709
Matrix coefficients : BT.709

Audio
ID : 2
Format : E-AC-3 JOC
Format/Info : Enhanced AC-3 with Joint Object Coding
Commercial name : Dolby Digital Plus with Dolby Atmos
Codec ID : A_EAC3
Duration : 1 h 54 min
Bit rate mode : Constant
Bit rate : 768 kb/s
Channel(s) : 6 channels
Channel layout : L R C LFE Ls Rs
Sampling rate : 48.0 kHz
Frame rate : 31.250 FPS (1536 SPF)
Compression mode : Lossy
Delay relative to video : 13 ms
Stream size : 631 MiB (3%)
Language : English
Service kind : Complete Main
Default : Yes
Forced : No
Complexity index : 16
Number of dynamic objects : 15
Bed channel count : 1 channel
Bed channel configuration : LFE

Text #1
ID : 3
Format : UTF-8
Codec ID : S_TEXT/UTF8
Codec ID/Info : UTF-8 Plain Text
Duration : 1 s 875 ms
Bit rate : 59 b/s
Count of elements : 1
Stream size : 14.0 Bytes (0%)
Title : Forced
Language : English
Default : Yes
Forced : Yes

Text #2
ID : 4
Format : UTF-8
Codec ID : S_TEXT/UTF8
Codec ID/Info : UTF-8 Plain Text
Duration : 1 h 49 min
Bit rate : 38 b/s
Count of elements : 1091
Stream size : 31.2 KiB (0%)
Language : English
Default : No
Forced : No

Text #3
ID : 5
Format : UTF-8
Codec ID : S_TEXT/UTF8
Codec ID/Info : UTF-8 Plain Text
Duration : 1 h 54 min
Bit rate : 50 b/s
Count of elements : 1559
Stream size : 42.5 KiB (0%)
Title : SDH
Language : English
Default : No
Forced : No

Text #4
ID : 6
Format : UTF-8
Codec ID : S_TEXT/UTF8
Codec ID/Info : UTF-8 Plain Text
Duration : 1 h 48 min
Bit rate : 32 b/s
Count of elements : 701
Stream size : 25.5 KiB (0%)
Language : Danish
Default : No
Forced : No

Text #5
ID : 7
Format : UTF-8
Codec ID : S_TEXT/UTF8
Codec ID/Info : UTF-8 Plain Text
Duration : 1 h 48 min
Bit rate : 32 b/s
Count of elements : 756
Stream size : 25.6 KiB (0%)
Language : Finnish
Default : No
Forced : No

Text #6
ID : 8
Format : UTF-8
Codec ID : S_TEXT/UTF8
Codec ID/Info : UTF-8 Plain Text
Duration : 1 h 53 min
Bit rate : 32 b/s
Count of elements : 988
Stream size : 27.0 KiB (0%)
Language : French
Default : No
Forced : No

Text #7
ID : 9
Format : UTF-8
Codec ID : S_TEXT/UTF8
Codec ID/Info : UTF-8 Plain Text
Duration : 1 h 49 min
Bit rate : 30 b/s
Count of elements : 750
Stream size : 24.7 KiB (0%)
Language : Norwegian Bokmal
Default : No
Forced : No

Text #8
ID : 10
Format : UTF-8
Codec ID : S_TEXT/UTF8
Codec ID/Info : UTF-8 Plain Text
Duration : 1 h 48 min
Bit rate : 34 b/s
Count of elements : 760
Stream size : 27.4 KiB (0%)
Language : Swedish
Default : No
Forced : No

迅雷下载资源速度为零,资源敏感和谐时,推荐使用qBittorrent等下载软件,有条件的推荐115更好的下载软件!

游客,如果您要查看本帖隐藏内容请回复



.

回复

使用道具 举报

2

主题

1318

帖子

3804

积分

中级会员

Rank: 4

积分
3804
发表于 2021-7-17 20:41:59 | 显示全部楼层
出4K版啦,下个看看
回复 支持 反对

使用道具 举报

0

主题

5563

帖子

1万

积分

4K家园VIP

Rank: 9Rank: 9Rank: 9

积分
13230
发表于 2021-7-17 22:07:32 | 显示全部楼层
太好啦&萬分感謝版主的無私發佈分享%
回复 支持 反对

使用道具 举报

3

主题

1522

帖子

4160

积分

4K家园VIP

Rank: 9Rank: 9Rank: 9

积分
4160
发表于 2021-7-18 02:02:55 | 显示全部楼层
路过 帮顶 嘿嘿
回复 支持 反对

使用道具 举报

50

主题

1442

帖子

4160

积分

4K家园VIP

Rank: 9Rank: 9Rank: 9

积分
4160
发表于 2021-7-18 02:24:45 | 显示全部楼层
多发些资源啊
回复 支持 反对

使用道具 举报

37

主题

1401

帖子

4019

积分

4K家园VIP

Rank: 9Rank: 9Rank: 9

积分
4019
发表于 2021-7-18 03:52:20 | 显示全部楼层
还有没有别的资源,多分享些
回复 支持 反对

使用道具 举报

1

主题

1324

帖子

3808

积分

4K家园VIP

Rank: 9Rank: 9Rank: 9

积分
3808
发表于 2021-7-18 03:56:11 | 显示全部楼层
路过 帮顶 嘿嘿
回复 支持 反对

使用道具 举报

0

主题

88

帖子

537

积分

新手上路

Rank: 1

积分
537
发表于 2021-7-18 14:55:14 | 显示全部楼层
谢谢楼主分享
回复 支持 反对

使用道具 举报

0

主题

8

帖子

390

积分

4K家园VIP

Rank: 9Rank: 9Rank: 9

积分
390
发表于 2021-7-18 17:35:36 | 显示全部楼层
求中文字幕
回复 支持 反对

使用道具 举报

0

主题

3

帖子

67

积分

新手上路

Rank: 1

积分
67
发表于 2021-7-22 17:22:30 | 显示全部楼层
6666666666666666
回复 支持 反对

使用道具 举报

您需要登录后才可以回帖 登录 | 立即注册

本版积分规则

精彩图文
Archiver|手机版|TAG|Sitemap|新帖|专题|联系我们:邮箱: 4kjia.com@gmail.com   

4k家园   ©2019