[4K电影] 街头飙车王 / Charm City Kings‎ (2020) 4K高清下载/12.77GB

[复制链接]

44

主题

1427

帖子

4085

积分

4K家园VIP

Rank: 9Rank: 9Rank: 9

积分
4085
 楼主| 发表于 2021-7-19 09:53:11 | 显示全部楼层 |阅读模式
本帖最后由 最爱4K哟 于 2021-7-19 15:30 编辑

QQ图片20210719094612_副本_meitu_1.jpg

◎译  名 街头飙车王/Twelve
◎片  名 Charm City Kings
◎年  代 2020
◎产  地 美国
◎类  别 剧情
◎语  言 英语
◎上映日期 2020-01-27(圣丹斯电影节) / 2020-10-08(美国)
◎IMDb评分  6.7/10 from 1863 users
◎IMDb链接  https://www.imdb.com/title/tt9048840/

◎IMDb评分 6.2/10 from 592 users
◎IMDb链接 https://www.imdb.com/title/tt9048840/
◎豆瓣评分 /10 from 0 users
◎豆瓣链接 https://movie.douban.com/subject/34907391/
◎导  演 安杰尔·曼纽尔·索托 Angel Manuel Soto
◎编  剧 巴里·詹金斯 Barry Jenkins
◎主  演 贾西·迪阿洛·温斯顿 Jahi Di'Allo Winston
      泰柔娜·派丽丝 Teyonah Parris
      米克·米尔 Meek Mill
      珍妮特·摩丝 Jeanette Maus
      米兰·雷 Milan Ray


◎简  介

  缪斯迫切希望加入臭名昭著的巴尔的摩越野车骑士The Midnight Clique,他们统治着夏季街头。 当午夜的领袖布拉克斯将14岁的缪斯带到他身边时,缪斯很快就发现自己在狭窄的道路和充斥着快速的金钱和暴力的道路之间挣扎。
Video
ID : 1
Format : HEVC
Format/Info : High Efficiency Video Coding
Format profile : Main 10@L5@High
HDR format : SMPTE ST 2086, HDR10 compatible
Codec ID : V_MPEGH/ISO/HEVC
Duration : 2 h 3 min
Bit rate : 14.5 Mb/s
Width : 3 836 pixels
Height : 1 920 pixels
Display aspect ratio : 1.998
Frame rate mode : Constant
Frame rate : 23.976 (24000/1001) FPS
Color space : YUV
Chroma subsampling : 4:2:0 (Type 2)
Bit depth : 10 bits
Bits/(Pixel*Frame) : 0.082
Stream size : 12.4 GiB (97%)
Language : English
Default : Yes
Forced : No
Color range : Limited
Color primaries : BT.2020
Transfer characteristics : PQ
Matrix coefficients : BT.2020 non-constant
Mastering display color primaries : BT.2020
Mastering display luminance : min: 0.0050 cd/m2, max: 1000 cd/m2
Maximum Content Light Level : 7858 cd/m2
Maximum Frame-Average Light Level : 600 cd/m2

Audio
ID : 2
Format : AC-3
Format/Info : Audio Coding 3
Commercial name : Dolby Digital
Codec ID : A_AC3
Duration : 2 h 3 min
Bit rate mode : Constant
Bit rate : 384 kb/s
Channel(s) : 6 channels
Channel layout : L R C LFE Ls Rs
Sampling rate : 48.0 kHz
Frame rate : 31.250 FPS (1536 SPF)
Compression mode : Lossy
Stream size : 338 MiB (3%)
Language : English
Service kind : Complete Main
Default : Yes
Forced : No

Text
ID : 3
Format : UTF-8
Codec ID : S_TEXT/UTF8
Codec ID/Info : UTF-8 Plain Text
Duration : 2 h 0 min
Bit rate : 71 b/s
Count of elements : 2028
Stream size : 63.3 KiB (0%)
Title : (SDH)
Language : English
Default : No
Forced : No



游客,如果您要查看本帖隐藏内容请回复



.

回复

使用道具 举报

57

主题

1461

帖子

4179

积分

4K家园VIP

Rank: 9Rank: 9Rank: 9

积分
4179
发表于 2021-7-19 09:53:16 | 显示全部楼层
为了三千积分!
回复 支持 反对

使用道具 举报

5

主题

1532

帖子

4216

积分

中级会员

Rank: 4

积分
4216
发表于 2021-7-19 16:26:41 | 显示全部楼层
佩服佩服!
回复 支持 反对

使用道具 举报

0

主题

1312

帖子

3756

积分

4K家园VIP

Rank: 9Rank: 9Rank: 9

积分
3756
发表于 2021-7-20 01:13:45 | 显示全部楼层
怎么这么大,希望我电视能看啊
回复 支持 反对

使用道具 举报

0

主题

1260

帖子

3602

积分

4K家园VIP

Rank: 9Rank: 9Rank: 9

积分
3602
发表于 2021-7-20 08:03:51 | 显示全部楼层
看着好像不错
回复 支持 反对

使用道具 举报

0

主题

5

帖子

50

积分

新手上路

Rank: 1

积分
50
发表于 2021-7-20 20:29:07 | 显示全部楼层
感谢分享
回复

使用道具 举报

3

主题

1262

帖子

3804

积分

4K家园VIP

Rank: 9Rank: 9Rank: 9

积分
3804
发表于 2021-7-21 02:14:22 | 显示全部楼层
怎么这么大,希望我电视能看啊
回复 支持 反对

使用道具 举报

您需要登录后才可以回帖 登录 | 立即注册

本版积分规则

精彩图文
Archiver|手机版|TAG|Sitemap|新帖|专题|联系我们:邮箱: 4kjia.com@gmail.com   

4k家园   ©2019