[4K电影] 封锁 / Locked Down‎ (2021) 4K高清下载/12.47GB

[复制链接]

59

主题

1396

帖子

4010

积分

4K家园VIP

Rank: 9Rank: 9Rank: 9

积分
4010
 楼主| 发表于 2021-7-19 10:18:25 | 显示全部楼层 |阅读模式
本帖最后由 最爱4K哟 于 2021-7-19 15:30 编辑

QQ图片20210719101556_副本_meitu_1.jpg

◎译  名 封锁/封锁隔离
◎片  名 Locked Down
◎年  代 2021
◎产  地 英国 / 美国
◎类  别 喜剧/爱情/犯罪
◎语  言 英语
◎上映日期 2021-01-14(美国网络)/2021-03-05(英国)
◎IMDb评分  5.2/10 from 8581 users
◎IMDb链接  https://www.imdb.com/title/tt13061914/
◎豆瓣评分 5.3/10 from 1227 users
◎豆瓣链接 https://douban.com/subject/35202854/
◎片  长 118分钟
◎导  演 道格·里曼 Doug Liman
◎编  剧 斯蒂文·奈特 Steven Knight
◎主  演 安妮·海瑟薇 Anne Hathaway
       切瓦特·埃加福 Chiwetel Ejiofor
       斯戴芬·莫昌特 Stephen Merchant
       敏迪·卡灵 Mindy Kaling
       本·金斯利 Ben Kingsley
       露西·宝通 Lucy Boynton
       杜勒·希尔 Dulé Hill
       贾兹敏·西蒙 Jazmyn Simon
       本·斯蒂勒 Ben Stiller
       马克·加蒂斯 Mark Gatiss
       鲍比·斯科菲尔德 Bobby Schofield


◎简  介


  设定在新冠疫情封城期间,讲述一对日常争吵不断的夫妻琳达和帕克斯顿休战,计划去完成一场高风险的抢劫——在世界上最高档的百货公司之一哈罗德搜刮珠宝。
Video
ID : 1
Format : HEVC
Format/Info : High Efficiency Video Coding
Format profile : Main 10@L5@High
HDR format : SMPTE ST 2086, HDR10 compatible
Codec ID : V_MPEGH/ISO/HEVC
Duration : 1 h 57 min
Bit rate : 14.4 Mb/s
Width : 3 840 pixels
Height : 2 068 pixels
Display aspect ratio : 1.85:1
Frame rate mode : Constant
Frame rate : 23.976 (24000/1001) FPS
Color space : YUV
Chroma subsampling : 4:2:0 (Type 2)
Bit depth : 10 bits
Bits/(Pixel*Frame) : 0.075
Stream size : 11.8 GiB (95%)
Language : English
Default : Yes
Forced : No
Color range : Limited
Color primaries : BT.2020
Transfer characteristics : PQ
Matrix coefficients : BT.2020 non-constant
Mastering display color primaries : BT.2020
Mastering display luminance : min: 0.0050 cd/m2, max: 1000 cd/m2
Maximum Content Light Level : 1370 cd/m2
Maximum Frame-Average Light Level : 142 cd/m2

Audio
ID : 2
Format : E-AC-3 JOC
Format/Info : Enhanced AC-3 with Joint Object Coding
Commercial name : Dolby Digital Plus with Dolby Atmos
Codec ID : A_EAC3
Duration : 1 h 57 min
Bit rate mode : Constant
Bit rate : 768 kb/s
Channel(s) : 6 channels
Channel layout : L R C LFE Ls Rs
Sampling rate : 48.0 kHz
Frame rate : 31.250 FPS (1536 SPF)
Compression mode : Lossy
Stream size : 648 MiB (5%)
Language : English
Service kind : Complete Main
Default : Yes
Forced : No
Complexity index : 16
Number of dynamic objects : 15
Bed channel count : 1 channel
Bed channel configuration : LFE

Text #1
ID : 3
Format : UTF-8
Codec ID : S_TEXT/UTF8
Codec ID/Info : UTF-8 Plain Text
Duration : 1 h 51 min
Bit rate : 93 b/s
Count of elements : 2073
Stream size : 76.6 KiB (0%)
Title : (SDH)
Language : English
Default : No
Forced : No

Text #2
ID : 4
Format : UTF-8
Codec ID : S_TEXT/UTF8
Codec ID/Info : UTF-8 Plain Text
Duration : 1 h 56 min
Bit rate : 70 b/s
Count of elements : 1801
Stream size : 60.5 KiB (0%)
Language : French
Default : No
Forced : No

Text #3
ID : 5
Format : UTF-8
Codec ID : S_TEXT/UTF8
Codec ID/Info : UTF-8 Plain Text
Duration : 1 h 54 min
Bit rate : 86 b/s
Count of elements : 1805
Stream size : 72.2 KiB (0%)
Language : Italian
Default : No
Forced : No

Text #4
ID : 6
Format : UTF-8
Codec ID : S_TEXT/UTF8
Codec ID/Info : UTF-8 Plain Text
Duration : 1 h 56 min
Bit rate : 70 b/s
Count of elements : 1598
Stream size : 60.2 KiB (0%)
Language : Dutch
Default : No
Forced : No

Text #5
ID : 7
Format : UTF-8
Codec ID : S_TEXT/UTF8
Codec ID/Info : UTF-8 Plain Text
Duration : 1 h 56 min
Bit rate : 75 b/s
Count of elements : 2006
Stream size : 64.2 KiB (0%)
Language : Portuguese
Default : No
Forced : No




游客,如果您要查看本帖隐藏内容请回复



.
回复

使用道具 举报

2

主题

1082

帖子

3264

积分

4K家园VIP

Rank: 9Rank: 9Rank: 9

积分
3264
发表于 2021-7-19 10:18:32 | 显示全部楼层
介是神马?!!
回复 支持 反对

使用道具 举报

37

主题

1430

帖子

4068

积分

4K家园VIP

Rank: 9Rank: 9Rank: 9

积分
4068
发表于 2021-7-19 10:18:33 | 显示全部楼层
出4K版啦,下个看看
回复 支持 反对

使用道具 举报

4

主题

1203

帖子

3629

积分

4K家园VIP

Rank: 9Rank: 9Rank: 9

积分
3629
发表于 2021-7-19 15:31:56 | 显示全部楼层
支持,赞一个
回复 支持 反对

使用道具 举报

2

主题

1286

帖子

3716

积分

4K家园VIP

Rank: 9Rank: 9Rank: 9

积分
3716
发表于 2021-7-21 09:46:57 | 显示全部楼层
very good
回复 支持 反对

使用道具 举报

3

主题

1280

帖子

3678

积分

4K家园VIP

Rank: 9Rank: 9Rank: 9

积分
3678
发表于 2021-7-21 15:05:41 | 显示全部楼层
额.....这个可以有
回复 支持 反对

使用道具 举报

您需要登录后才可以回帖 登录 | 立即注册

本版积分规则

精彩图文
Archiver|手机版|TAG|Sitemap|新帖|专题|联系我们:邮箱: 4kjia.com@gmail.com   

4k家园   ©2019