[4K电影] 未怀孕 / Unpregnant (2020) 4K高清下载/10.54GB

[复制链接]

742

主题

783

帖子

6748

积分

超级版主

Rank: 8Rank: 8

积分
6748
 楼主| 发表于 2021-7-19 10:28:43 | 显示全部楼层 |阅读模式
本帖最后由 最爱4K哟 于 2021-7-19 15:48 编辑

QQ图片20210719102533_副本_meitu_2.jpg

◎译  名 未怀孕/堕胎
◎片  名 Unpregnant
◎年  代 2020
◎产  地 美国
◎类  别 剧情/喜剧
◎语  言 英语
◎上映日期 2020-09-10(美国网络)
◎IMDb评分  6.2/10 from 2,076 users
◎IMDb链接  https://www.imdb.com/title/tt10556022/
◎豆瓣评分 6.9/10 from 662 users
◎豆瓣链接 https://douban.com/subject/34440481/
◎片  长 103分钟
◎导  演 蕾琪儿·戈登堡 Rachel Goldenberg
◎编  剧 詹妮·亨德里克斯 Jenni Hendriks / 蕾琪儿·戈登堡 Rachel Goldenberg / 比尔·帕克 Bill Parker / 詹尼弗·凯廷·罗宾逊 Jennifer Kaytin Robinson / 泰德·卡普兰 Ted Caplan / Ted Caplan
◎主  演 海莉·露·理查森 Haley Lu Richardson
       芭比·费雷拉 Barbie Ferreira
       吉安卡罗·埃斯波西托 Giancarlo Esposito
       亚历克斯·马克尼科尔 Alex MacNicoll
       布瑞金·梅耶 Breckin Meyer
       舒格·林·彼尔德 Sugar Lyn Beard
       丹尼·洛夫 Denny Love
       玛丽·麦克科马克 Mary McCormack
       贝蒂·胡 Betty Who
       杰瑞尔·普雷斯科特 Jeryl Prescott
       雷蒙娜·杨 Ramona Young
       卡拉·罗伊斯特 Kara Royster
       梅格·史密斯 Meg Smith
       莎朗·安妮·亨德森 Sharon Anne Henderson
       马科斯·德席尔瓦斯 Marcos De Silvas
       戴安娜·维利加斯 Diane Villegas
       玛丽·瓦根曼 Marie Wagenman



◎简  介


  女孩Veronica(理查森)发现自己怀孕了,她只能和有车的“前”好友Bailey(Ferreira)一起上路,寻求合法堕胎:Veronica的男友很窝囊,她自己也不想这么年轻就当妈妈,不然会影响她的常春藤大学梦。而她所在的美国密苏里州规定未成年人必须有父母同意才能堕胎,她的父母并不同意。Veronica决定旅行900英里,去新墨西哥州堕胎后回家。
  Veronica是个沉迷于ins、成绩优秀、雄心勃勃的好学生,而Bailey是个孤独、毒舌的酷儿,对Veronica的新朋友们忍耐度为零。这样两个人怀着这样的目标一起上路,途中行差踏错,既有动情之处,又有幽默。
Video
ID : 1
Format : HEVC
Format/Info : High Efficiency Video Coding
Format profile : Main 10@L5@High
HDR format : SMPTE ST 2086, HDR10 compatible
Codec ID : V_MPEGH/ISO/HEVC
Duration : 1 h 43 min
Bit rate : 14.2 Mb/s
Width : 3 840 pixels
Height : 1 608 pixels
Display aspect ratio : 2.40:1
Frame rate mode : Constant
Frame rate : 23.976 (24000/1001/189150) FPS
Color space : YUV
Chroma subsampling : 4:2:0 (Type 2)
Bit depth : 10 bits
Bits/(Pixel*Frame) : 0.096
Stream size : 10.3 GiB (97%)
Language : English
Default : Yes
Forced : No
Color range : Limited
Color primaries : BT.2020
Transfer characteristics : PQ
Matrix coefficients : BT.2020 non-constant
Mastering display color primaries : BT.2020
Mastering display luminance : min: 0.0050 cd/m2, max: 1000 cd/m2
Maximum Content Light Level : 978 cd/m2
Maximum Frame-Average Light Level : 155 cd/m2

Audio
ID : 2
Format : AC-3
Format/Info : Audio Coding 3
Commercial name : Dolby Digital
Codec ID : A_AC3
Duration : 1 h 43 min
Bit rate mode : Constant
Bit rate : 384 kb/s
Channel(s) : 6 channels
Channel layout : L R C LFE Ls Rs
Sampling rate : 48.0 kHz
Frame rate : 31.250 FPS (1536 SPF)
Compression mode : Lossy
Stream size : 285 MiB (3%)
Language : English
Service kind : Complete Main
Default : Yes
Forced : No

Text
ID : 3
Format : UTF-8
Codec ID : S_TEXT/UTF8
Codec ID/Info : UTF-8 Plain Text
Duration : 1 h 39 min
Bit rate : 78 b/s
Count of elements : 1677
Stream size : 56.7 KiB (0%)
Title : (SDH)
Language : English
Default : No
Forced : No
迅雷下载资源速度为零,资源敏感和谐时,推荐使用qBittorrent等下载软件,有条件的推荐115更好的下载软件!

游客,如果您要查看本帖隐藏内容请回复



.
回复

使用道具 举报

1

主题

1288

帖子

3700

积分

4K家园VIP

Rank: 9Rank: 9Rank: 9

积分
3700
发表于 2021-7-19 10:28:49 | 显示全部楼层
纯粹路过,没任何兴趣,仅仅是看在老用户份上回复一下
回复 支持 反对

使用道具 举报

39

主题

1429

帖子

4079

积分

4K家园VIP

Rank: 9Rank: 9Rank: 9

积分
4079
发表于 2021-7-19 22:09:52 | 显示全部楼层
高手云集 果断围观
回复 支持 反对

使用道具 举报

0

主题

1

帖子

6

积分

新手上路

Rank: 1

积分
6
发表于 2021-7-21 13:53:35 | 显示全部楼层

asian nude model

asian nude model
回复 支持 反对

使用道具 举报

1

主题

1370

帖子

3910

积分

4K家园VIP

Rank: 9Rank: 9Rank: 9

积分
3910
发表于 2021-7-22 14:23:45 | 显示全部楼层
very good
回复 支持 反对

使用道具 举报

1

主题

1282

帖子

3698

积分

4K家园VIP

Rank: 9Rank: 9Rank: 9

积分
3698
发表于 6 天前 来自手机 | 显示全部楼层
沙发位出租,
回复 支持 反对

使用道具 举报

199

主题

1631

帖子

4453

积分

4K家园VIP

Rank: 9Rank: 9Rank: 9

积分
4453
发表于 4 天前 来自手机 | 显示全部楼层
感谢推荐,确实不错
回复 支持 反对

使用道具 举报