[4K电影] 粉色火烈鸟之惑‎ (2020) 4K高清下载/12.68GB

[复制链接]

742

主题

783

帖子

6748

积分

超级版主

Rank: 8Rank: 8

积分
6748
 楼主| 发表于 2021-7-19 15:46:50 | 显示全部楼层 |阅读模式
本帖最后由 最爱4K哟 于 2021-7-19 20:58 编辑

QQ图片20210719153632_副本_meitu_2.jpg

◎译  名 粉色火烈鸟之惑
◎片  名 The Mystery of the Pink Flamingo
◎年  代 2020
◎国  家 西班牙
◎类  别 喜剧 / 纪录片
◎语  言 西班牙语 / 英语
◎上映日期 2020-03-15(西班牙)
◎IMDb评分  7.5/10 from 48 users
◎IMDb链接  https://www.imdb.com/title/tt9249166/
◎豆瓣评分 0/10 from 0 users
◎豆瓣链接 movie.douban.com/subject/35138280/
◎片  长 82 分钟
◎导  演 哈维尔·波罗·甘迪亚
◎编  剧   Sixto Xavier García / David Pascual / 哈维尔·波罗·甘迪亚
◎主  演 John Waters
                   爱德华多·卡萨诺瓦 Eduardo Casanova
                   阿利·威利斯



◎简  介

        音效师里戈的生活突然被一个奇怪的声音扰乱,而声音来自于一群粉红色的火烈鸟。里戈由此开始调查粉色火烈鸟这一对他而言十分古怪且引发困扰的形象,试图解释它们背后神秘的含义。他只身从西班牙出发,与世界各地的文化人士会面,共同探讨粉色火烈鸟为何受到全球广泛的欢迎,这趟奇异的旅程也成为粉色火烈鸟这一符号对当今流行文化的解读与自我剖析的联结。
Video
ID : 1
Format : HEVC
Format/Info : High Efficiency Video Coding
Format profile : Main 10@L5@High
Codec ID : V_MPEGH/ISO/HEVC
Duration : 1 h 26 min
Bit rate : 20.6 Mb/s
Width : 3 840 pixels
Height : 2 160 pixels
Display aspect ratio : 16:9
Frame rate mode : Constant
Frame rate : 25.000 FPS
Color space : YUV
Chroma subsampling : 4:2:0
Bit depth : 10 bits
Bits/(Pixel*Frame) : 0.099
Stream size : 12.4 GiB (98%)
Language : English
Default : Yes
Forced : No
Color range : Limited
Color primaries : BT.709
Transfer characteristics : BT.709
Matrix coefficients : BT.709

Audio
ID : 2
Format : AC-3
Format/Info : Audio Coding 3
Commercial name : Dolby Digital
Codec ID : A_AC3
Duration : 1 h 26 min
Bit rate mode : Constant
Bit rate : 384 kb/s
Channel(s) : 6 channels
Channel layout : L R C LFE Ls Rs
Sampling rate : 48.0 kHz
Frame rate : 31.250 FPS (1536 SPF)
Compression mode : Lossy
Stream size : 238 MiB (2%)
Language : English
Service kind : Complete Main
Default : Yes
Forced : No

Text
ID : 3
Format : UTF-8
Codec ID : S_TEXT/UTF8
Codec ID/Info : UTF-8 Plain Text
Duration : 1 h 14 min
Bit rate : 59 b/s
Count of elements : 929
Stream size : 32.4 KiB (0%)
Title : (SDH)
Language : English
Default : No
Forced : No

迅雷下载资源速度为零,资源敏感和谐时,推荐使用qBittorrent等下载软件,有条件的推荐115更好的下载软件!

游客,如果您要查看本帖隐藏内容请回复


.
回复

使用道具 举报

0

主题

1291

帖子

3735

积分

4K家园VIP

Rank: 9Rank: 9Rank: 9

积分
3735
发表于 2021-7-19 15:46:56 | 显示全部楼层
这个资源我记得是一套的,楼主还有没有
回复 支持 反对

使用道具 举报

1

主题

1271

帖子

3829

积分

4K家园VIP

Rank: 9Rank: 9Rank: 9

积分
3829
发表于 2021-7-19 15:46:56 来自手机 | 显示全部楼层
不错 支持一个了
回复 支持 反对

使用道具 举报

0

主题

5563

帖子

1万

积分

4K家园VIP

Rank: 9Rank: 9Rank: 9

积分
13230
发表于 2021-7-19 16:10:28 | 显示全部楼层
太好啦&萬分感謝版主的無私發佈分享%
回复 支持 反对

使用道具 举报

0

主题

88

帖子

537

积分

新手上路

Rank: 1

积分
537
发表于 2021-7-19 16:18:35 | 显示全部楼层
谢谢分享  给力
回复 支持 反对

使用道具 举报

0

主题

1312

帖子

3756

积分

4K家园VIP

Rank: 9Rank: 9Rank: 9

积分
3756
发表于 2021-7-19 20:48:12 | 显示全部楼层
4K家园不错,希望这种资源越多越好
回复 支持 反对

使用道具 举报

55

主题

1522

帖子

4382

积分

4K家园VIP

Rank: 9Rank: 9Rank: 9

积分
4382
发表于 2021-7-20 18:58:51 | 显示全部楼层
支持支持再支持
回复 支持 反对

使用道具 举报

2

主题

1601

帖子

4407

积分

4K家园VIP

Rank: 9Rank: 9Rank: 9

积分
4407
发表于 2021-7-20 23:57:51 | 显示全部楼层
顶顶更健康
回复 支持 反对

使用道具 举报

0

主题

560

帖子

1946

积分

注册会员

Rank: 2

积分
1946
发表于 2021-7-21 22:12:22 | 显示全部楼层
谢谢楼主分享
回复 支持 反对

使用道具 举报

您需要登录后才可以回帖 登录 | 立即注册

本版积分规则

精彩图文
Archiver|手机版|TAG|Sitemap|新帖|专题|联系我们:邮箱: 4kjia.com@gmail.com   

4k家园   ©2019