[4K MV] 2021 Brave Girls - Chi Mat Ba Ram @SHOWCASE 4k [2160P/MP4/484MB]

[复制链接]

2415

主题

2715

帖子

2万

积分

超级版主

Rank: 8Rank: 8

积分
22686
 楼主| 发表于 2021-7-20 10:50:54 | 显示全部楼层 |阅读模式
2021 Brave Girls - Chi Mat Ba Ram @SHOWCASE 4k.mp4_20210720_104533.162.jpg 2021 Brave Girls - Chi Mat Ba Ram @SHOWCASE 4k.mp4_20210720_104541.266.jpg 2021 Brave Girls - Chi Mat Ba Ram @SHOWCASE 4k.mp4_20210720_104554.073.jpg 2021 Brave Girls - Chi Mat Ba Ram @SHOWCASE 4k.mp4_20210720_104603.361.jpg

General
Complete name                  : E:\电影、MV\2021 Brave Girls - Chi Mat Ba Ram @SHOWCASE 4k.mp4
Format                         : MPEG-4
Format profile                 : Base Media
Codec ID                       : isom (isom/iso2/avc1/mp41)
File size                      : 484 MiB
Duration                       : 3 min 34 s
Overall bit rate               : 18.9 Mb/s
Writing application            : Lavf58.12.100
exvr                           : EX1.8.2(C1.0.9)

Video
ID                             : 1
Format                         : AVC
Format/Info                    : Advanced Video Codec
Format profile                 : High@L5.1
Format settings                : CABAC / 4 Ref Frames
Format settings, CABAC         : Yes
Format settings, Reference fra : 4 frames
Format settings, GOP           : M=4, N=60
Codec ID                       : avc1
Codec ID/Info                  : Advanced Video Coding
Duration                       : 3 min 34 s
Bit rate                       : 18.7 Mb/s
Width                          : 3 840 pixels
Height                         : 2 160 pixels
Display aspect ratio           : 16:9
Frame rate mode                : Constant
Frame rate                     : 29.970 (29970/1000) FPS
Color space                    : YUV
Chroma subsampling             : 4:2:0
Bit depth                      : 8 bits
Scan type                      : Progressive
Bits/(Pixel*Frame)             : 0.075
Stream size                    : 479 MiB (99%)
Codec configuration box        : avcC

Audio
ID                             : 2
Format                         : AAC LC
Format/Info                    : Advanced Audio Codec Low Complexity
Codec ID                       : mp4a-40-2
Duration                       : 3 min 34 s
Bit rate mode                  : Constant
Bit rate                       : 192 kb/s
Channel(s)                     : 2 channels
Channel layout                 : L R
Sampling rate                  : 48.0 kHz
Frame rate                     : 46.875 FPS (1024 SPF)
Compression mode               : Lossy
Stream size                    : 4.92 MiB (1%)
Default                        : Yes
Alternate group                : 1

网盘下载失效不补:链接: https://pan.baidu.com/s/1CP2T0hXDI-WqcDeU_7W0zw 提取码:
****此区域为收费内容****    需支付 15 金币后可查看立即购买




.
回复

使用道具 举报

1

主题

1326

帖子

3794

积分

4K家园VIP

Rank: 9Rank: 9Rank: 9

积分
3794
发表于 2021-7-20 10:51:00 | 显示全部楼层
众里寻他千百度,蓦然回首在这里!
回复 支持 反对

使用道具 举报

0

主题

1516

帖子

4128

积分

4K家园VIP

Rank: 9Rank: 9Rank: 9

积分
4128
发表于 2021-7-21 23:38:47 来自手机 | 显示全部楼层
嘘,低调。
回复 支持 反对

使用道具 举报

1

主题

1631

帖子

4501

积分

4K家园VIP

Rank: 9Rank: 9Rank: 9

积分
4501
发表于 2021-7-23 00:46:56 | 显示全部楼层
什么东西啊
回复 支持 反对

使用道具 举报

4

主题

1615

帖子

4479

积分

4K家园VIP

Rank: 9Rank: 9Rank: 9

积分
4479
发表于 6 天前 | 显示全部楼层
垃圾
回复 支持 反对

使用道具 举报

48

主题

1408

帖子

4042

积分

4K家园VIP

Rank: 9Rank: 9Rank: 9

积分
4042
发表于 6 天前 | 显示全部楼层
感谢分享
回复 支持 反对

使用道具 举报

您需要登录后才可以回帖 登录 | 立即注册

本版积分规则

精彩图文
Archiver|手机版|TAG|Sitemap|新帖|专题|联系我们:邮箱: 4kjia.com@gmail.com   

4k家园   ©2019