[4K电影] 然后怎样 / How It Ends (2021) 4K高清下载/12.26GB

[复制链接]

746

主题

787

帖子

6788

积分

超级版主

Rank: 8Rank: 8

积分
6788
 楼主| 发表于 2021-7-20 13:49:30 | 显示全部楼层 |阅读模式
本帖最后由 最爱4K哟 于 2021-7-20 21:05 编辑

QQ图片20210720134615_副本.png

◎译  名 然后怎样
◎片  名 How It Ends
◎年  代 2021
◎产  地 英国,美国
◎类  别 喜剧
◎语  言 英语
◎上映日期 2021-01-29(圣丹斯电影节) / 2021-07-20(美国)
◎IMDb评分  5.8/10 from 225 users
◎IMDb链接  https://www.imdb.com/title/tt13648228/
◎豆瓣评分 0/10 from 0 users
◎豆瓣链接 https://movie.douban.com/subject/35288795/
◎片  长 82 分钟
◎导  演 佐伊·李斯特-琼斯 / 达丽尔·韦恩
◎编  剧 佐伊·李斯特-琼斯 / 达丽尔·韦恩
◎主  演 佐伊·利斯特·琼斯
                    Cailee Spaeny
                   惠特尼·卡明斯
                   黄褐色纽瑟姆
                   芬兰人Wolfhard
                   尼克·克罗尔
                   洛根·马歇尔-格林
                   鲍比·李
                   弗雷德·阿米森
                   格伦·豪顿
                   布拉德利·惠特福德
                   亚青Edebiri
                   莎伦·凡·滕
                   奥利维亚·王尔德
                  保罗W.斯
                   雷蒙德湛小
                   拉莫恩·莫里斯
                   安琪莉·卡布拉尔
                   罗布·休贝尔
                   保罗·希尔


◎简  介

        在这部让人感觉良好的世界末日喜剧中,丽莎(佐伊·李斯特-琼斯饰)开始了一段穿越洛杉矶的热闹旅程,希望在一切结束之前参加她的最后一场派对,一路上遇到了一群不拘一格的角色。
Video
ID : 1
Format : HEVC
Format/Info : High Efficiency Video Coding
Format profile : Main 10@L5@High
Codec ID : V_MPEGH/ISO/HEVC
Duration : 1 h 23 min
Bit rate : 20.7 Mb/s
Width : 3 832 pixels
Height : 2 152 pixels
Display aspect ratio : 16:9
Frame rate mode : Constant
Frame rate : 23.976 FPS
Color space : YUV
Chroma subsampling : 4:2:0
Bit depth : 10 bits
Bits/(Pixel*Frame) : 0.105
Stream size : 12.0 GiB (97%)
Default : Yes
Forced : No
Color range : Limited
Color primaries : BT.709
Transfer characteristics : BT.709
Matrix coefficients : BT.709

Audio
ID : 2
Format : E-AC-3
Format/Info : Enhanced AC-3
Commercial name : Dolby Digital Plus
Codec ID : A_EAC3
Duration : 1 h 23 min
Bit rate mode : Constant
Bit rate : 640 kb/s
Channel(s) : 6 channels
Channel layout : L R C LFE Ls Rs
Sampling rate : 48.0 kHz
Frame rate : 31.250 FPS (1536 SPF)
Compression mode : Lossy
Stream size : 380 MiB (3%)
Language : English
Service kind : Complete Main
Default : Yes
Forced : No

Text
ID : 3
Format : UTF-8
Codec ID : S_TEXT/UTF8
Codec ID/Info : UTF-8 Plain Text
Duration : 1 h 19 min
Bit rate : 84 b/s
Count of elements : 1556
Stream size : 49.0 KiB (0%)
Title : English
Language : English
Default : No
Forced : No
迅雷下载资源速度为零,资源敏感和谐时,推荐使用qBittorrent等下载软件,有条件的推荐115更好的下载软件!

游客,如果您要查看本帖隐藏内容请回复

****此区域为收费内容****    需支付 9 金币后可查看立即购买




.
回复

使用道具 举报

2

主题

1232

帖子

3528

积分

4K家园VIP

Rank: 9Rank: 9Rank: 9

积分
3528
发表于 2021-7-20 13:49:34 来自手机 | 显示全部楼层
确实不错,顶先
回复 支持 反对

使用道具 举报

0

主题

1261

帖子

3793

积分

4K家园VIP

Rank: 9Rank: 9Rank: 9

积分
3793
发表于 2021-7-20 16:02:15 | 显示全部楼层
路过
回复 支持 反对

使用道具 举报

0

主题

5576

帖子

1万

积分

4K家园VIP

Rank: 9Rank: 9Rank: 9

积分
13263
发表于 2021-7-20 16:18:52 | 显示全部楼层
太好啦&萬分感謝版主的無私發佈分享%
回复 支持 反对

使用道具 举报

0

主题

6

帖子

19

积分

新手上路

Rank: 1

积分
19
发表于 2021-7-21 13:54:47 | 显示全部楼层
4k资源越多越好
回复 支持 反对

使用道具 举报

0

主题

560

帖子

1946

积分

注册会员

Rank: 2

积分
1946
发表于 2021-7-21 22:12:14 | 显示全部楼层
谢谢楼主分享
回复 支持 反对

使用道具 举报

0

主题

1271

帖子

3663

积分

4K家园VIP

Rank: 9Rank: 9Rank: 9

积分
3663
发表于 2021-7-24 06:46:32 | 显示全部楼层
OMG!介是啥东东!!!
回复 支持 反对

使用道具 举报

47

主题

1425

帖子

4117

积分

4K家园VIP

Rank: 9Rank: 9Rank: 9

积分
4117
发表于 2021-7-24 20:51:51 | 显示全部楼层
众里寻他千百度,蓦然回首在这里!
回复 支持 反对

使用道具 举报

0

主题

1367

帖子

3913

积分

4K家园VIP

Rank: 9Rank: 9Rank: 9

积分
3913
发表于 2021-7-26 21:26:51 | 显示全部楼层
专业抢沙发的!哈哈
回复 支持 反对

使用道具 举报

您需要登录后才可以回帖 登录 | 立即注册

本版积分规则

精彩图文
Archiver|手机版|TAG|Sitemap|新帖|专题|联系我们:邮箱: 4kjia.com@gmail.com   

4k家园   ©2019