[4K UHD 蓝光原盘] 指环王(内嵌中字)三部曲[扩展加长版] 4K蓝光REMUX 版本下载

[复制链接]

1017

主题

1060

帖子

1万

积分

超级版主

Rank: 8Rank: 8

积分
12956
 楼主| 发表于 2021-9-11 22:49:13 | 显示全部楼层 |阅读模式
本帖最后由 没完没了 于 2021-9-16 23:15 编辑

567-1.jpg

◎译  名 指环王1:魔戒再现/指环王I:护戒使者/魔戒1:护戒联盟/魔戒首部曲:魔戒现身
◎片  名 The Lord of the Rings: The Fellowship of the Ring
◎年  代 2001
◎产  地 新西兰/美国
◎类  别 剧情/动作/奇幻/冒险
◎语  言 英语/辛达林语
◎整理连接 http://www.4kjia.com/
◎上映日期 2001-12-19(美国)/2002-04-04(中国大陆)
◎IMDb评分  8.7/10 from 1523035 users
◎IMDb链接  https://www.imdb.com/title/tt0120737/
◎豆瓣评分 9.1/10 from 704697 users
◎豆瓣链接 https://movie.douban.com/subject/1291571/
◎片  长 3 h 48 min
◎导  演 彼得·杰克逊 Peter Jackson
◎编  剧 弗兰·威尔士 Fran Walsh / Philippa Boyens / 彼得·杰克逊 Peter Jackson / 托尔金 J.R.R. Tolkien
◎主  演 伊利亚·伍德 Elijah Wood
       西恩·奥斯汀 Sean Astin
       伊恩·麦克莱恩 Ian McKellen
       维果·莫腾森 Viggo Mortensen
       奥兰多·布鲁姆 Orlando Bloom
       凯特·布兰切特 Cate Blanchett
       肖恩·宾 Sean Bean
       克里斯托弗·李 Christopher Lee
       雨果·维文 Hugo Weaving
       丽芙·泰勒 Liv Tyler
       安迪·瑟金斯 Andy Serkis
       伊安·霍姆 Ian Holm
       多米尼克·莫纳汉 Dominic Monaghan
       萨拉·贝克 Sala Baker
       约翰·瑞斯-戴维斯 John Rhys-Davies

◎简  介

  比尔博•巴金斯是100多岁的哈比人,住在故乡夏尔,生性喜欢冒险,在年轻时的一次探险经历中,他从怪物咕噜手中得到了至尊魔戒,这枚戒指是黑暗魔君索伦打造的至尊魔戒,拥有奴役世界的邪恶力量,能够统领其他几枚力量之戒,在3000年前的人类联盟和半兽人大军的战役中,联盟取得了胜利,并得到了至尊魔戒,数千年的辗转后,魔戒落到咕噜手中,被比尔博碰巧得到。
  因为和魔戒的朝夕相处,比尔博的心性也受到了影响,在他111岁的生日宴会上,他决定把一切都留给侄子佛罗多(伊莱贾•伍德 饰),继续冒险。
  比尔博的好朋友灰袍巫师甘道夫(伊恩•麦凯伦 饰)知道至尊魔戒的秘密,同时,黑暗魔君索伦已经知道他的魔戒落在哈比族的手中。索伦正在重新建造要塞巴拉多,集结无数的半兽人,准备以大军 夺取魔戒,并且征服全世界。
  甘道夫说服佛罗多将魔戒护送到精灵王国瑞文希尔,佛罗多在好朋友山姆、皮平和梅利的陪同下,在跃马旅店得到了刚铎王子阿拉贡的帮助,历经艰难,终于到达了精灵王国。
  然而,精灵族并不愿意保管这个邪恶的至尊魔戒,中土各国代表开会讨论,达成意见,准备将至尊魔戒送到末日山脉的烈焰中彻底销毁,佛罗多挺身而出接受了这个任务,这次,陪伴他的除了三个好朋友,还有甘道夫、阿拉贡、精灵莱戈拉斯(奥兰多•布鲁姆 饰)、人类博罗米尔、侏儒金利。
  一路上,魔戒远征军除了要逃避索伦爪牙黑骑士和半兽人的追杀之外,更要抵抗至尊魔界本身的邪恶诱惑,前途困难重重。
General
ID                          : 1 (0x1)
Complete name               : F:\Фильмы\The.Lord.of.the.Rings.The.Fellowship.of.the.Ring.2001.D.MVO.AVO.BDREMUX.2160p.HDR.DV.seleZen
Format/Info                 : Blu-ray Video
File size                   : 140 GiB
Duration                    : 3 h 48 min
Overall bit rate mode       : Variable
Overall bit rate            : 87.7 Mb/s
Maximum Overall bit rate    : 35.5 Mb/s

Video #1
ID                          : 4113 (0x1011)
Menu ID                     : 1 (0x1)
Format                      : HEVC
Format/Info                 : High Efficiency Video Coding
Format profile              : Main 10@L5.1@High
HDR format                  : SMPTE ST 2086, HDR10 compatible
Codec ID                    : 36
Duration                    : 3 h 48 min
Width                       : 3 840 pixels
Height                      : 2 160 pixels
Display aspect ratio        : 16:9
Frame rate                  : 23.976 (24000/1001) FPS
Color space                 : YUV
Chroma subsampling          : 4:2:0 (Type 2)
Bit depth                   : 10 bits
Color range                 : Limited
Color primaries             : BT.2020
Transfer characteristics    : PQ
Matrix coefficients         : BT.2020 non-constant
Mastering display color pri : Display P3
Mastering display luminance : min: 0.0050 cd/m2, max: 4000 cd/m2
Maximum Content Light Level : 602 cd/m2
Maximum Frame-Average Light : 184 cd/m2

Video #2
ID                          : 4117 (0x1015)
Menu ID                     : 1 (0x1)
Format                      : HEVC
Format/Info                 : High Efficiency Video Coding
Format profile              : Main 10@L5.1@High
HDR format                  : SMPTE ST 2086, HDR10 compatible
Codec ID                    : 36
Duration                    : 3 h 48 min
Width                       : 1 920 pixels
Height                      : 1 080 pixels
Display aspect ratio        : 16:9
Frame rate                  : 23.976 (24000/1001) FPS
Color space                 : YUV
Chroma subsampling          : 4:2:0 (Type 2)
Bit depth                   : 10 bits
Color range                 : Limited
Color primaries             : BT.2020
Transfer characteristics    : PQ
Matrix coefficients         : BT.2020 non-constant
Mastering display color pri : Display P3
Mastering display luminance : min: 0.0050 cd/m2, max: 4000 cd/m2

Audio #1
ID                          : 4352 (0x1100)
Menu ID                     : 1 (0x1)
Format                      : AC-3
Format/Info                 : Audio Coding 3
Commercial name             : Dolby Digital
Codec ID                    : 129
Duration                    : 3 h 48 min
Bit rate mode               : Constant
Bit rate                    : 448 kb/s
Channel(s)                  : 6 channels
Channel layout              : L R C LFE Ls Rs
Sampling rate               : 48.0 kHz
Frame rate                  : 31.250 FPS (1536 SPF)
Compression mode            : Lossy
Stream size                 : 732 MiB (1%)
Service kind                : Complete Main

Audio #2
ID                          : 4353 (0x1101)
Menu ID                     : 1 (0x1)
Format                      : DTS ES XXCH XBR
Format/Info                 : Digital Theater Systems
Commercial name             : DTS-HD High Resolution Audio
Muxing mode                 : Stream extension
Codec ID                    : 133
Duration                    : 3 h 48 min
Bit rate mode               : Constant
Bit rate                    : 2 559 kb/s
Channel(s)                  : 7 channels
Channel layout              : C L R Ls Rs LFE Cb
Sampling rate               : 48.0 kHz
Frame rate                  : 93.750 FPS (512 SPF)
Bit depth                   : 24 bits
Compression mode            : Lossy
Stream size                 : 4.08 GiB (3%)

Audio #3
ID                          : 4354 (0x1102)
Menu ID                     : 1 (0x1)
Format                      : DTS ES XXCH XLL
Format/Info                 : Digital Theater Systems
Commercial name             : DTS-HD Master Audio
Muxing mode                 : Stream extension
Codec ID                    : 134
Duration                    : 3 h 48 min
Bit rate mode               : Variable
Channel(s)                  : 7 channels
Channel layout              : C L R Ls Rs LFE Cb
Sampling rate               : 48.0 kHz
Frame rate                  : 93.750 FPS (512 SPF)
Bit depth                   : 24 bits
Compression mode            : Lossless

Audio #4
ID                          : 4355 (0x1103)
Menu ID                     : 1 (0x1)
Format                      : DTS ES XXCH
Format/Info                 : Digital Theater Systems
Commercial name             : DTS-ES Discrete
Codec ID                    : 130
Duration                    : 3 h 48 min
Bit rate mode               : Constant
Bit rate                    : 1 510 kb/s
Channel(s)                  : 7 channels
Channel layout              : C L R Ls Rs Cb LFE
Sampling rate               : 48.0 kHz
Frame rate                  : 93.750 FPS (512 SPF)
Bit depth                   : 24 bits
Compression mode            : Lossy
Stream size                 : 2.41 GiB (2%)

Audio #5
ID                          : 4356 (0x1104)
Menu ID                     : 1 (0x1)
Format                      : DTS ES XXCH
Format/Info                 : Digital Theater Systems
Commercial name             : DTS-ES Discrete
Codec ID                    : 130
Duration                    : 3 h 48 min
Bit rate mode               : Constant
Bit rate                    : 1 510 kb/s
Channel(s)                  : 7 channels
Channel layout              : C L R Ls Rs Cb LFE
Sampling rate               : 48.0 kHz
Frame rate                  : 93.750 FPS (512 SPF)
Bit depth                   : 24 bits
Compression mode            : Lossy
Stream size                 : 2.41 GiB (2%)

Audio #6
ID                          : 4357 (0x1105)
Menu ID                     : 1 (0x1)
Format                      : AC-3 MLP FBA 16-ch
Format/Info                 : Audio Coding 3 + Meridian Lossless Packing FBA with 16-channel presentation
Commercial name             : Dolby TrueHD with Dolby Atmos
Muxing mode                 : Stream extension
Codec ID                    : 131
Duration                    : 3 h 48 min
Bit rate mode               : Variable
Bit rate                    : 448 kb/s
Maximum bit rate            : 4 992 kb/s
Channel(s)                  : 8 channels
Channel layout              : L R C LFE Ls Rs Lb Rb
Sampling rate               : 48.0 kHz
Frame rate                  : 31.250 FPS (1536 SPF)
Compression mode            : Lossy
Stream size                 : 732 MiB (1%)
Service kind                : Complete Main
Number of dynamic objects   : 11
Bed channel count           : 1 channel
Bed channel configuration   : LFE

Text #1
ID                          : 4768 (0x12A0)
Menu ID                     : 1 (0x1)
Format                      : PGS
Codec ID                    : 144

Text #2
ID                          : 4769 (0x12A1)
Menu ID                     : 1 (0x1)
Format                      : PGS
Codec ID                    : 144

Text #3
ID                          : 4770 (0x12A2)
Menu ID                     : 1 (0x1)
Format                      : PGS
Codec ID                    : 144

Text #4
ID                          : 4771 (0x12A3)
Menu ID                     : 1 (0x1)
Format                      : PGS
Codec ID                    : 144

Text #5
ID                          : 4772 (0x12A4)
Menu ID                     : 1 (0x1)
Format                      : PGS
Codec ID                    : 144

Text #6
ID                          : 4773 (0x12A5)
Menu ID                     : 1 (0x1)
Format                      : PGS
Codec ID                    : 144




567-2.jpg

◎译  名 指环王2:双塔奇兵/指环王II:双塔/魔戒2:双塔奇谋/魔戒二部曲:双城奇谋
◎片  名 The Lord of the Rings: The Two Towers
◎年  代 2002
◎产  地 美国/新西兰
◎类  别 剧情/动作/奇幻/冒险
◎语  言 英语/辛达林语/古代英语
◎上映日期 2002-12-05(纽约首映)/2002-12-18(美国)/2003-04-25(中国大陆)
◎整理连接 http://www.4kjia.com/
◎IMDb评分  8.7/10 from 1523035 users
◎IMDb链接  https://www.imdb.com/title/tt0167261/
◎豆瓣评分 9.1/10 from 619738 users
◎豆瓣链接 https://douban.com/subject/1291572/
◎片  长 3 h 55 min 25
◎导  演 彼得·杰克逊 Peter Jackson
◎编  剧 弗兰·威尔士 Fran Walsh / Philippa Boyens / Stephen Sinclair / 彼得·杰克逊 Peter Jackson / 托尔金 J.R.R. Tolkien
◎主  演 伊利亚·伍德 Elijah Wood
       西恩·奥斯汀 Sean Astin
       伊恩·麦克莱恩 Ian McKellen
       维果·莫腾森 Viggo Mortensen
       奥兰多·布鲁姆 Orlando Bloom
       克里斯托弗·李 Christopher Lee
       丽芙·泰勒 Liv Tyler
       安迪·瑟金斯 Andy Serkis
       雨果·维文 Hugo Weaving
       卡尔·厄本 Karl Urban
       凯特·布兰切特 Cate Blanchett
       多米尼克·莫纳汉 Dominic Monaghan
       大卫·文翰 David Wenham
       比利·博伊德 Billy Boyd
       布拉德·道里夫 Brad Dourif
       伯纳德·希尔 Bernard Hill
       约翰·瑞斯-戴维斯 John Rhys-Davies
       米兰达·奥图 Miranda Otto

◎简  介

  第二部在延续第一部风格的同时,故事呈现出多线发展的格局,情节有了更高的观赏性。
  第一部结尾,博罗米尔被强兽人杀死之后,两个哈比族人皮平和梅利也被强兽人绑架,阿拉贡、精灵莱戈拉斯(奥兰多•布鲁姆 饰)、侏儒金利一路追踪强兽人,营救皮平和梅利,遇到了“复活”的白袍巫师甘道夫(伊恩•麦凯伦 饰)。此时,投降索伦的白袍巫师萨鲁曼控制了人类洛汉王国的国王,并派出大量的强兽人军队,准备消灭人类。阿拉贡、莱戈拉斯和金利在甘道夫的带领下,帮助洛汉王国对抗邪恶力量的入侵。
  幸运的皮平和梅利被会说话的树精救了出来,并且遇到“复活”的甘道夫,在甘道夫的授意下,树精保护了两人的安全,并且带他们参加树精大会,大会上,树精们讨论对待中土大战的态度:是继续当中立者,逆来顺受,还是奋起反抗?
  身负重任的佛罗多(伊莱贾•伍德 饰)和山姆继续向末日山脉前进,一路上被咕噜跟踪,弗罗多依靠至尊魔戒的力量,成为了咕噜的主人,在咕噜的带领下,他们到了末日山脉的入口,黑门。就在他们准备进入之时,博罗米尔的弟弟法莫尔出现,将他们带回了刚铎。弗罗多又遇上了新的危机:法莫尔想利用至尊魔戒的力量对抗萨鲁曼的攻击……
General
Complete name                            : R:\The.Lord.of.the.Rings_The.Two.Towers.2002.BDRemux.2160p.DV.HDR.TeamHD.mkv
Format                                   : Matroska
Format version                           : Version 4
File size                                : 162 GiB
Duration                                 : 3 h 55 min
Overall bit rate mode                    : Variable
Overall bit rate                         : 98.7 Mb/s
Encoded date                             : UTC 2021-01-16 18:40:43
Writing application                      : mkvmerge v52.0.0 ('Secret For The Mad') 64-bit
Writing library                          : libebml v1.4.1 + libmatroska v1.6.2

Video
ID                                       : 1
ID in the original source medium         : 4113 (0x1011)
Format                                   : HEVC
Format/Info                              : High Efficiency Video Coding
Format profile                           : Main 10@L5.1@High
HDR format                               : Dolby Vision, Version 1.0, dvhe.07.06, BL+EL+RPU, Blu-ray compatible / SMPTE ST 2086, HDR10 compatible
Codec ID                                 : V_MPEGH/ISO/HEVC
Duration                                 : 3 h 55 min
Bit rate                                 : 60.6 Mb/s
Width                                    : 3 840 pixels
Height                                   : 2 160 pixels
Display aspect ratio                     : 16:9
Frame rate mode                          : Constant
Frame rate                               : 23.976 (24000/1001) FPS
Color space                              : YUV
Chroma subsampling                       : 4:2:0 (Type 2)
Bit depth                                : 10 bits
Bits/(Pixel*Frame)                       : 0.305
Stream size                              : 99.6 GiB (61%)
Language                                 : English
Default                                  : No
Forced                                   : No
Color range                              : Limited
Color primaries                          : BT.2020
Transfer characteristics                 : PQ
Matrix coefficients                      : BT.2020 non-constant
Mastering display color primaries        : Display P3
Mastering display luminance              : min: 0.0050 cd/m2, max: 4000 cd/m2
Maximum Content Light Level              : 827 cd/m2
Maximum Frame-Average Light Level        : 329 cd/m2
Original source medium                   : Blu-ray

Audio #1
ID                                       : 2
Format                                   : AC-3
Format/Info                              : Audio Coding 3
Commercial name                          : Dolby Digital
Codec ID                                 : A_AC3
Duration                                 : 3 h 55 min
Bit rate mode                            : Constant
Bit rate                                 : 448 kb/s
Channel(s)                               : 6 channels
Channel layout                           : L R C LFE Ls Rs
Sampling rate                            : 48.0 kHz
Frame rate                               : 31.250 FPS (1536 SPF)
Compression mode                         : Lossy
Stream size                              : 755 MiB (0%)
Title                                    : Dub
Language                                 : Russian
Service kind                             : Complete Main
Default                                  : Yes
Forced                                   : No

Audio #2
ID                                       : 3
ID in the original source medium         : 4352 (0x1100)
Format                                   : DTS ES XXCH XLL
Format/Info                              : Digital Theater Systems
Commercial name                          : DTS-HD Master Audio
Codec ID                                 : A_DTS
Duration                                 : 3 h 55 min
Bit rate mode                            : Variable
Bit rate                                 : 4 501 kb/s
Channel(s)                               : 7 channels
Channel layout                           : C L R Ls Rs LFE Cb
Sampling rate                            : 48.0 kHz
Frame rate                               : 93.750 FPS (512 SPF)
Bit depth                                : 24 bits
Compression mode                         : Lossless
Stream size                              : 7.40 GiB (5%)
Title                                    : MVO.PositiveMM
Language                                 : Russian
Default                                  : No
Forced                                   : No
Original source medium                   : Blu-ray

Audio #3
ID                                       : 4
ID in the original source medium         : 4353 (0x1101)
Format                                   : DTS ES XXCH XLL
Format/Info                              : Digital Theater Systems
Commercial name                          : DTS-HD Master Audio
Codec ID                                 : A_DTS
Duration                                 : 3 h 55 min
Bit rate mode                            : Variable
Bit rate                                 : 4 487 kb/s
Channel(s)                               : 7 channels
Channel layout                           : C L R Ls Rs LFE Cb
Sampling rate                            : 48.0 kHz
Frame rate                               : 93.750 FPS (512 SPF)
Bit depth                                : 24 bits
Compression mode                         : Lossless
Stream size                              : 7.38 GiB (5%)
Title                                    : MVO.Kinomania.Superbit
Language                                 : Russian
Default                                  : No
Forced                                   : No
Original source medium                   : Blu-ray

Audio #4
ID                                       : 5
ID in the original source medium         : 4354 (0x1102)
Format                                   : DTS XLL
Format/Info                              : Digital Theater Systems
Commercial name                          : DTS-HD Master Audio
Codec ID                                 : A_DTS
Duration                                 : 3 h 55 min
Bit rate mode                            : Variable
Bit rate                                 : 2 138 kb/s
Channel(s)                               : 2 channels
Channel layout                           : L R
Sampling rate                            : 48.0 kHz
Frame rate                               : 93.750 FPS (512 SPF)
Bit depth                                : 24 bits
Compression mode                         : Lossless
Stream size                              : 3.52 GiB (2%)
Title                                    : MVO.R5
Language                                 : Russian
Default                                  : No
Forced                                   : No
Original source medium                   : Blu-ray

Audio #5
ID                                       : 6
ID in the original source medium         : 4362 (0x110A)
Format                                   : MLP FBA 16-ch
Format/Info                              : Meridian Lossless Packing FBA with 16-channel presentation
Commercial name                          : Dolby TrueHD with Dolby Atmos
Codec ID                                 : A_TRUEHD
Duration                                 : 3 h 55 min
Bit rate mode                            : Variable
Bit rate                                 : 3 057 kb/s
Maximum bit rate                         : 4 668 kb/s
Channel(s)                               : 8 channels
Channel layout                           : L R C LFE Ls Rs Lb Rb
Sampling rate                            : 48.0 kHz
Frame rate                               : 1 200.000 FPS (40 SPF)
Compression mode                         : Lossless
Stream size                              : 5.03 GiB (3%)
Title                                    : Eng.TrueHDAtmos
Language                                 : English
Default                                  : No
Forced                                   : No
Original source medium                   : Blu-ray
Number of dynamic objects                : 11
Bed channel count                        : 1 channel
Bed channel configuration                : LFE

Audio #6
ID                                       : 7
ID in the original source medium         : 4362 (0x110A)
Format                                   : AC-3
Format/Info                              : Audio Coding 3
Commercial name                          : Dolby Digital
Codec ID                                 : A_AC3
Duration                                 : 3 h 55 min
Bit rate mode                            : Constant
Bit rate                                 : 448 kb/s
Channel(s)                               : 6 channels
Channel layout                           : L R C LFE Ls Rs
Sampling rate                            : 48.0 kHz
Frame rate                               : 31.250 FPS (1536 SPF)
Compression mode                         : Lossy
Stream size                              : 755 MiB (0%)
Title                                    : Eng.DolbySurrEX
Language                                 : English
Service kind                             : Complete Main
Default                                  : No
Forced                                   : No
Original source medium                   : Blu-ray

Audio #7
ID                                       : 8
ID in the original source medium         : 4355 (0x1103)
Format                                   : DTS ES XXCH XLL
Format/Info                              : Digital Theater Systems
Commercial name                          : DTS-HD Master Audio
Codec ID                                 : A_DTS
Duration                                 : 3 h 55 min
Bit rate mode                            : Variable
Bit rate                                 : 4 496 kb/s
Channel(s)                               : 7 channels
Channel layout                           : C L R Ls Rs LFE Cb
Sampling rate                            : 48.0 kHz
Frame rate                               : 93.750 FPS (512 SPF)
Bit depth                                : 24 bits
Compression mode                         : Lossless
Stream size                              : 7.40 GiB (5%)
Title                                    : DVO.Glanz.Kazakova
Language                                 : Russian
Default                                  : No
Forced                                   : No
Original source medium                   : Blu-ray

Audio #8
ID                                       : 9
ID in the original source medium         : 4356 (0x1104)
Format                                   : DTS ES XXCH XLL
Format/Info                              : Digital Theater Systems
Commercial name                          : DTS-HD Master Audio
Codec ID                                 : A_DTS
Duration                                 : 3 h 55 min
Bit rate mode                            : Variable
Bit rate                                 : 4 491 kb/s
Channel(s)                               : 7 channels
Channel layout                           : C L R Ls Rs LFE Cb
Sampling rate                            : 48.0 kHz
Frame rate                               : 93.750 FPS (512 SPF)
Bit depth                                : 24 bits
Compression mode                         : Lossless
Stream size                              : 7.39 GiB (5%)
Title                                    : AVO.Ryabov
Language                                 : Russian
Default                                  : No
Forced                                   : No
Original source medium                   : Blu-ray

Audio #9
ID                                       : 10
Format                                   : AC-3
Format/Info                              : Audio Coding 3
Commercial name                          : Dolby Digital
Codec ID                                 : A_AC3
Duration                                 : 3 h 55 min
Bit rate mode                            : Constant
Bit rate                                 : 192 kb/s
Channel(s)                               : 2 channels
Channel layout                           : L R
Sampling rate                            : 48.0 kHz
Frame rate                               : 31.250 FPS (1536 SPF)
Compression mode                         : Lossy
Stream size                              : 324 MiB (0%)
Title                                    : AVO.Goblin+Pozitiv
Language                                 : Russian
Service kind                             : Complete Main
Default                                  : No
Forced                                   : No

Audio #10
ID                                       : 11
ID in the original source medium         : 4357 (0x1105)
Format                                   : DTS ES XXCH XLL
Format/Info                              : Digital Theater Systems
Commercial name                          : DTS-HD Master Audio
Codec ID                                 : A_DTS
Duration                                 : 3 h 55 min
Bit rate mode                            : Variable
Bit rate                                 : 4 490 kb/s
Channel(s)                               : 7 channels
Channel layout                           : C L R Ls Rs LFE Cb
Sampling rate                            : 48.0 kHz
Frame rate                               : 93.750 FPS (512 SPF)
Bit depth                                : 24 bits
Compression mode                         : Lossless
Stream size                              : 7.39 GiB (5%)
Title                                    : AVO.Gavrilov
Language                                 : Russian
Default                                  : No
Forced                                   : No
Original source medium                   : Blu-ray

Audio #11
ID                                       : 12
ID in the original source medium         : 4358 (0x1106)
Format                                   : DTS ES XXCH XLL
Format/Info                              : Digital Theater Systems
Commercial name                          : DTS-HD Master Audio
Codec ID                                 : A_DTS
Duration                                 : 3 h 55 min
Bit rate mode                            : Variable
Bit rate                                 : 4 506 kb/s
Channel(s)                               : 7 channels
Channel layout                           : C L R Ls Rs LFE Cb
Sampling rate                            : 48.0 kHz
Frame rate                               : 93.750 FPS (512 SPF)
Bit depth                                : 24 bits
Compression mode                         : Lossless
Stream size                              : 7.41 GiB (5%)
Title                                    : AVO.Serbin
Language                                 : Russian
Default                                  : No
Forced                                   : No
Original source medium                   : Blu-ray

Audio #12
ID                                       : 13
ID in the original source medium         : 4359 (0x1107)
Format                                   : DTS ES XXCH XLL
Format/Info                              : Digital Theater Systems
Commercial name                          : DTS-HD Master Audio
Codec ID                                 : A_DTS
Duration                                 : 3 h 55 min
Bit rate mode                            : Variable
Bit rate                                 : 4 478 kb/s
Channel(s)                               : 7 channels
Channel layout                           : C L R Ls Rs LFE Cb
Sampling rate                            : 48.0 kHz
Frame rate                               : 93.750 FPS (512 SPF)
Bit depth                                : 24 bits
Compression mode                         : Lossless
Stream size                              : 7.37 GiB (5%)
Title                                    : MVO.Omikron
Language                                 : Ukrainian
Default                                  : No
Forced                                   : No
Original source medium                   : Blu-ray

Audio #13
ID                                       : 14
ID in the original source medium         : 4360 (0x1108)
Format                                   : AC-3
Format/Info                              : Audio Coding 3
Commercial name                          : Dolby Digital
Codec ID                                 : A_AC3
Duration                                 : 3 h 55 min
Bit rate mode                            : Constant
Bit rate                                 : 192 kb/s
Channel(s)                               : 2 channels
Channel layout                           : L R
Sampling rate                            : 48.0 kHz
Frame rate                               : 31.250 FPS (1536 SPF)
Compression mode                         : Lossy
Stream size                              : 323 MiB (0%)
Title                                    : UKR.MVO.1+1
Language                                 : Ukrainian
Service kind                             : Complete Main
Default                                  : No
Forced                                   : No
Original source medium                   : Blu-ray

Audio #14
ID                                       : 15
ID in the original source medium         : 4361 (0x1109)
Format                                   : AC-3
Format/Info                              : Audio Coding 3
Commercial name                          : Dolby Digital
Codec ID                                 : A_AC3
Duration                                 : 3 h 55 min
Bit rate mode                            : Constant
Bit rate                                 : 192 kb/s
Channel(s)                               : 2 channels
Channel layout                           : L R
Sampling rate                            : 48.0 kHz
Frame rate                               : 31.250 FPS (1536 SPF)
Compression mode                         : Lossy
Stream size                              : 323 MiB (0%)
Title                                    : UKR.MVO.NovyKanal
Language                                 : Ukrainian
Service kind                             : Complete Main
Default                                  : No
Forced                                   : No
Original source medium                   : Blu-ray

Text #1
ID                                       : 16
Format                                   : ASS
Codec ID                                 : S_TEXT/ASS
Codec ID/Info                            : Advanced Sub Station Alpha
Duration                                 : 2 h 24 min
Bit rate                                 : 4 b/s
Count of elements                        : 61
Compression mode                         : Lossless
Stream size                              : 4.31 KiB (0%)
Title                                    : Forced (Pozitiv MM)
Language                                 : Russian
Default                                  : Yes
Forced                                   : No

Text #2
ID                                       : 17
Format                                   : UTF-8
Codec ID                                 : S_TEXT/UTF8
Codec ID/Info                            : UTF-8 Plain Text
Duration                                 : 3 h 33 min
Bit rate                                 : 60 b/s
Count of elements                        : 2059
Stream size                              : 95.4 KiB (0%)
Title                                    : Full (Pozitiv MM)
Language                                 : Russian
Default                                  : No
Forced                                   : No

Text #3
ID                                       : 18
Format                                   : UTF-8
Codec ID                                 : S_TEXT/UTF8
Codec ID/Info                            : UTF-8 Plain Text
Duration                                 : 3 h 33 min
Bit rate                                 : 59 b/s
Count of elements                        : 2041
Stream size                              : 93.9 KiB (0%)
Title                                    : Full (Henneth-annun)
Language                                 : Russian
Default                                  : No
Forced                                   : No

Text #4
ID                                       : 19
Format                                   : ASS
Codec ID                                 : S_TEXT/ASS
Codec ID/Info                            : Advanced Sub Station Alpha
Duration                                 : 2 h 8 min
Bit rate                                 : 3 b/s
Count of elements                        : 67
Compression mode                         : Lossless
Stream size                              : 3.42 KiB (0%)
Title                                    : Eng.Forced
Language                                 : English
Default                                  : No
Forced                                   : No

Text #5
ID                                       : 20
Format                                   : ASS
Codec ID                                 : S_TEXT/ASS
Codec ID/Info                            : Advanced Sub Station Alpha
Duration                                 : 3 h 33 min
Bit rate                                 : 76 b/s
Count of elements                        : 2035
Compression mode                         : Lossless
Stream size                              : 120 KiB (0%)
Title                                    : Eng.Full
Language                                 : English
Default                                  : No
Forced                                   : No

Text #6
ID                                       : 21
Format                                   : UTF-8
Codec ID                                 : S_TEXT/UTF8
Codec ID/Info                            : UTF-8 Plain Text
Duration                                 : 3 h 37 min
Bit rate                                 : 18 b/s
Count of elements                        : 589
Stream size                              : 29.5 KiB (0%)
Title                                    : Ukr.SRT.Full
Language                                 : Ukrainian
Default                                  : No
Forced                                   : No

Menu
00:00:00.000                             : en:Chapter 01. The Foundations of Stone
00:04:08.373                             : en:Chapter 02. Elven Rope
00:06:10.703                             : en:Chapter 03. The Taming of Smeagol
00:14:44.925                             : en:Chapter 04. The Uruk-hai
00:17:06.567                             : en:Chapter 05. The Three Hunters
00:19:17.823                             : en:Chapter 06. The Burning of the Westfold
00:23:07.219                             : en:Chapter 07. Massacre at the Fords of Isen
00:23:58.186                             : en:Chapter 08. The Banishment of Éomer
00:27:09.002                             : en:Chapter 09. On the Trail of the Uruk-hai
00:28:02.972                             : en:Chapter 10. Night of Camp at Fangorn
00:31:38.062                             : en:Chapter 11. The Riders of Rohan
00:35:45.351                             : en:Chapter 12. The Fate of Merry and Pippin
00:38:17.545                             : en:Chapter 13. Treebeard
00:41:48.047                             : en:Chapter 14. The passage of the Marshes
00:50:49.671                             : en:Chapter 15. The White Rider
00:58:19.370                             : en:Chapter 16. The Song of the Entwives
01:00:40.136                             : en:Chapter 17. The Heir of Húmenor
01:02:48.264                             : en:Chapter 18. The Black Gate is Closed
01:08:05.956                             : en:Chapter 19. Ent Draft
01:12:41.690                             : en:Chapter 20. The King of the Golden Hall
01:24:17.302                             : en:Chapter 21. The Funeral of Théodred
01:25:42.053                             : en:Chapter 22. Simbelmynë on the Burial Mounds
01:27:34.290                             : en:Chapter 23. The King’s Decision
01:30:45.940                             : en:Chapter 24. Brego
01:32:30.545                             : en:Chapter 25. The Ring of Barahir
01:34:30.790                             : en:Chapter 26. A Daughter of Kings
01:35:56.751                             : en:Chapter 27. Exodus from Edoras
01:37:02.149                             : en:Chapter 28. The Forest of Ithilien
01:38:43.918                             : en:Chapter 29. Gollum and Sméagol
01:41:15.235                             : en:Chapter 30. Of Herbs and Stewed Rabbit
01:46:40.060                             : en:Chapter 01. Dwarf Women
01:47:22.936                             : en:Chapter 02. One of the Dúnedain
01:49:52.419                             : en:Chapter 03. The Evanstar
01:54:59.350                             : en:Chapter 04. The Wolves of Isengard
02:01:37.540                             : en:Chapter 05. Helm’s Deep
02:04:17.199                             : en:Chapter 06. Isengard Unleashed
02:06:53.689                             : en:Chapter 07. The Grace of the Valar
02:08:31.203                             : en:Chapter 08. Arwen’s Fate
02:12:14.426                             : en:Chapter 09. The Story Foreseen from Lórien
02:14:40.405                             : en:Chapter 10. The Window on the West
02:18:29.634                             : en:Chapter 11. Sons of the Steward
02:23:09.581                             : en:Chapter 12. The Forbidden Pool
02:30:31.147                             : en:Chapter 13. Aragorn’s Return
02:36:04.521                             : en:Chapter 14. Entmoot
02:37:24.393                             : en:Chapter 15. The Glittering Caves
02:40:32.664                             : en:Chapter 16. “Where is the Horse and the Rider?”
02:42:17.394                             : en:Chapter 17. “Don’t Be Hasty, Master Meriadoc!”
02:43:07.861                             : en:Chapter 18. The Host of the Eldar
02:46:42.242                             : en:Chapter 19. The Battle of the hornburg
02:53:04.540                             : en:Chapter 20. Old Entish
02:54:41.596                             : en:Chapter 21. The Breach of the Deeping Wall
02:58:06.384                             : en:Chapter 22. The Entmoot Decides
02:59:51.864                             : en:Chapter 23. The Retreat to the Homburg
03:05:53.934                             : en:Chapter 24. Master Peregrin’s Plan
03:07:19.436                             : en:Chapter 25. Osgiliath
03:07:54.137                             : en:Chapter 26. The Last March of the ents
03:10:23.703                             : en:Chapter 27. The Nazgûl Attack
03:12:55.188                             : en:Chapter 28. Forth Eorlingas
03:17:33.633                             : en:Chapter 29. The Flooding of Isengard
03:20:00.238                             : en:Chapter 30. The Tales That Really Mattered …
03:24:45.273                             : en:Chapter 31. Fangorn Comes to helm’s Deep
03:25:36.991                             : en:Chapter 32. The Final Tally
03:26:18.616                             : en:Chapter 33. Flotsam and Jetsam
03:28:22.156                             : en:Chapter 34. Farewell to Faramir
03:30:52.556                             : en:Chapter 35. “The Battle for Middle-earth is About to Begin”
03:32:32.239                             : en:Chapter 36. Gollum’s Plan
03:34:55.883                             : en:Chapter 37. End Credits
03:43:52.669                             : en:Chapter 38. Fan Club Credits




567-3.jpg

◎译  名 指环王3:王者无敌/指环王3:国王归来/指环王3:皇上回宫(豆友译名)/指环王III:王者无敌/魔戒3:王者归来/魔戒三部曲:王者再临(台/港)
◎片  名 The Lord of the Rings: The Return of the King
◎年  代 2003
◎产  地 美国/新西兰
◎类  别 剧情/动作/奇幻/冒险
◎语  言 英语/昆雅语/古英语/辛达林语
◎整理连接 http://www.4kjia.com/
◎上映日期 2003-12-17(美国)/2004-03-12(中国大陆)
◎IMDb评分  8.9/10 from 1684925 users
◎IMDb链接  https://www.imdb.com/title/tt0167260/
◎豆瓣评分 9.3/10 from 665361 users
◎豆瓣链接 https://douban.com/subject/1291552/
◎片  长 4 h 23 min
◎导  演 彼得·杰克逊 Peter Jackson
◎编  剧 弗兰·威尔士 Fran Walsh / Philippa Boyens / 彼得·杰克逊 Peter Jackson / 托尔金 J.R.R. Tolkien
◎主  演 维果·莫腾森 Viggo Mortensen
       伊利亚·伍德 Elijah Wood
       西恩·奥斯汀 Sean Astin
       丽芙·泰勒 Liv Tyler
       伊恩·麦克莱恩 Ian McKellen
       奥兰多·布鲁姆 Orlando Bloom
       凯特·布兰切特 Cate Blanchett
       米兰达·奥图 Miranda Otto
       安迪·瑟金斯 Andy Serkis
       雨果·维文 Hugo Weaving
       多米尼克·莫纳汉 Dominic Monaghan
       比利·博伊德 Billy Boyd
       马尔顿·索克斯 Marton Csokas
       卡尔·厄本 Karl Urban
       克里斯托弗·李 Christopher Lee
       约翰·瑞斯-戴维斯 John Rhys-Davies

◎简  介

  魔幻战争逐渐进入高潮阶段。霍比特人弗拉多(伊利亚·伍德 Elijah Wood 饰)携带着魔戒,与伙伴山姆(Sean Astin 饰)以及狡猾阴暗的咕噜等前往末日山,一路上艰难险阻不断,魔君索伦为阻止魔戒被销毁用尽全力阻挠。另一方面,白袍巫师甘道夫(伊安·麦克莱恩 Ian McKellen 饰)率中土勇士们镇守刚铎首都——白城米那斯提里斯。魔兽大军压境,黑暗与光明的决战即将来临……
  本片是“指环王三部曲”的终结篇,根据英国作家J.R.R.托尔金(J.R.R. Tolkien)同名魔幻巨著《指环王》(The Lord of the Rings)改编,并荣获2004年第76届奥斯卡最佳影片、最佳导演、最佳改编剧本、最佳剪辑、最佳艺术指导、最佳服装设计、最佳化妆、最佳视觉效果、最佳音效、最佳配乐和最佳歌曲等11项大奖。
General
Complete name                            : D:\The.Lord.of.the.Rings_The.Return.of.the.King.2003.BDRemux.2160p.DV.HDR.kinozal.mkv
Format                                   : Matroska
Format version                           : Version 4
File size                                : 180 GiB
Duration                                 : 4 h 23 min
Overall bit rate mode                    : Variable
Overall bit rate                         : 98.0 Mb/s
Encoded date                             : UTC 2021-01-28 00:23:12
Writing application                      : mkvmerge v52.0.0 ('Secret For The Mad') 64-bit
Writing library                          : libebml v1.4.1 + libmatroska v1.6.2

Video
ID                                       : 1
ID in the original source medium         : 4113 (0x1011)
Format                                   : HEVC
Format/Info                              : High Efficiency Video Coding
Format profile                           : Main 10@L5.1@High
HDR format                               : Dolby Vision, Version 1.0, dvhe.07.06, BL+EL+RPU, Blu-ray compatible / SMPTE ST 2086, HDR10 compatible
Codec ID                                 : V_MPEGH/ISO/HEVC
Duration                                 : 4 h 23 min
Bit rate                                 : 63.9 Mb/s
Width                                    : 3 840 pixels
Height                                   : 2 160 pixels
Display aspect ratio                     : 16:9
Frame rate mode                          : Constant
Frame rate                               : 23.976 (24000/1001) FPS
Color space                              : YUV
Chroma subsampling                       : 4:2:0 (Type 2)
Bit depth                                : 10 bits
Bits/(Pixel*Frame)                       : 0.321
Stream size                              : 118 GiB (65%)
Language                                 : English
Default                                  : No
Forced                                   : No
Color range                              : Limited
Color primaries                          : BT.2020
Transfer characteristics                 : PQ
Matrix coefficients                      : BT.2020 non-constant
Mastering display color primaries        : Display P3
Mastering display luminance              : min: 0.0050 cd/m2, max: 4000 cd/m2
Maximum Content Light Level              : 636 cd/m2
Maximum Frame-Average Light Level        : 103 cd/m2
Original source medium                   : Blu-ray

Audio #1
ID                                       : 2
Format                                   : AC-3
Format/Info                              : Audio Coding 3
Commercial name                          : Dolby Digital
Codec ID                                 : A_AC3
Duration                                 : 4 h 23 min
Bit rate mode                            : Constant
Bit rate                                 : 448 kb/s
Channel(s)                               : 6 channels
Channel layout                           : L R C LFE Ls Rs
Sampling rate                            : 48.0 kHz
Frame rate                               : 31.250 FPS (1536 SPF)
Compression mode                         : Lossy
Stream size                              : 844 MiB (0%)
Title                                    : Dub
Language                                 : Russian
Service kind                             : Complete Main
Default                                  : Yes
Forced                                   : No

Audio #2
ID                                       : 3
Format                                   : DTS ES XXCH XLL
Format/Info                              : Digital Theater Systems
Commercial name                          : DTS-HD Master Audio
Codec ID                                 : A_DTS
Duration                                 : 4 h 23 min
Bit rate mode                            : Variable
Bit rate                                 : 4 570 kb/s
Channel(s)                               : 7 channels
Channel layout                           : C L R Ls Rs LFE Cb
Sampling rate                            : 48.0 kHz
Frame rate                               : 93.750 FPS (512 SPF)
Bit depth                                : 24 bits
Compression mode                         : Lossless
Stream size                              : 8.40 GiB (5%)
Title                                    : MVO.PositiveMM
Language                                 : Russian
Default                                  : No
Forced                                   : No

Audio #3
ID                                       : 4
Format                                   : DTS ES XXCH XLL
Format/Info                              : Digital Theater Systems
Commercial name                          : DTS-HD Master Audio
Codec ID                                 : A_DTS
Duration                                 : 4 h 23 min
Bit rate mode                            : Variable
Bit rate                                 : 4 555 kb/s
Channel(s)                               : 7 channels
Channel layout                           : C L R Ls Rs LFE Cb
Sampling rate                            : 48.0 kHz
Frame rate                               : 93.750 FPS (512 SPF)
Bit depth                                : 24 bits
Compression mode                         : Lossless
Stream size                              : 8.38 GiB (5%)
Title                                    : MVO.Kinomania.Superbit
Language                                 : Russian
Default                                  : No
Forced                                   : No

Audio #4
ID                                       : 5
Format                                   : DTS XLL
Format/Info                              : Digital Theater Systems
Commercial name                          : DTS-HD Master Audio
Codec ID                                 : A_DTS
Duration                                 : 4 h 23 min
Bit rate mode                            : Variable
Bit rate                                 : 2 141 kb/s
Channel(s)                               : 2 channels
Channel layout                           : L R
Sampling rate                            : 48.0 kHz
Frame rate                               : 93.750 FPS (512 SPF)
Bit depth                                : 24 bits
Compression mode                         : Lossless
Stream size                              : 3.94 GiB (2%)
Title                                    : MVO.R5
Language                                 : Russian
Default                                  : No
Forced                                   : No

Audio #5
ID                                       : 6
Format                                   : MLP FBA 16-ch
Format/Info                              : Meridian Lossless Packing FBA with 16-channel presentation
Commercial name                          : Dolby TrueHD with Dolby Atmos
Codec ID                                 : A_TRUEHD
Duration                                 : 4 h 23 min
Bit rate mode                            : Variable
Bit rate                                 : 2 971 kb/s
Maximum bit rate                         : 4 515 kb/s
Channel(s)                               : 8 channels
Channel layout                           : L R C LFE Ls Rs Lb Rb
Sampling rate                            : 48.0 kHz
Frame rate                               : 1 200.000 FPS (40 SPF)
Compression mode                         : Lossless
Stream size                              : 5.46 GiB (3%)
Title                                    : Eng.TrueHDAtmos
Language                                 : English
Default                                  : No
Forced                                   : No
Number of dynamic objects                : 11
Bed channel count                        : 1 channel
Bed channel configuration                : LFE

Audio #6
ID                                       : 7
Format                                   : AC-3
Format/Info                              : Audio Coding 3
Commercial name                          : Dolby Digital
Codec ID                                 : A_AC3
Duration                                 : 4 h 23 min
Bit rate mode                            : Constant
Bit rate                                 : 448 kb/s
Channel(s)                               : 6 channels
Channel layout                           : L R C LFE Ls Rs
Sampling rate                            : 48.0 kHz
Frame rate                               : 31.250 FPS (1536 SPF)
Compression mode                         : Lossy
Stream size                              : 844 MiB (0%)
Title                                    : Eng.DolbySurrEX
Language                                 : English
Service kind                             : Complete Main
Default                                  : No
Forced                                   : No

Audio #7
ID                                       : 8
Format                                   : AC-3
Format/Info                              : Audio Coding 3
Commercial name                          : Dolby Digital
Codec ID                                 : A_AC3
Duration                                 : 4 h 23 min
Bit rate mode                            : Constant
Bit rate                                 : 192 kb/s
Channel(s)                               : 2 channels
Channel layout                           : L R
Sampling rate                            : 48.0 kHz
Frame rate                               : 31.250 FPS (1536 SPF)
Compression mode                         : Lossy
Stream size                              : 362 MiB (0%)
Title                                    : AVO.Goblin+Pozitiv
Language                                 : Russian
Service kind                             : Complete Main
Default                                  : No
Forced                                   : No

Audio #8
ID                                       : 9
Format                                   : DTS ES XXCH XLL
Format/Info                              : Digital Theater Systems
Commercial name                          : DTS-HD Master Audio
Codec ID                                 : A_DTS
Duration                                 : 4 h 23 min
Bit rate mode                            : Variable
Bit rate                                 : 4 562 kb/s
Channel(s)                               : 7 channels
Channel layout                           : C L R Ls Rs LFE Cb
Sampling rate                            : 48.0 kHz
Frame rate                               : 93.750 FPS (512 SPF)
Bit depth                                : 24 bits
Compression mode                         : Lossless
Stream size                              : 8.39 GiB (5%)
Title                                    : AVO.Vizgunov
Language                                 : Russian
Default                                  : No
Forced                                   : No

Audio #9
ID                                       : 10
Format                                   : DTS ES XXCH XLL
Format/Info                              : Digital Theater Systems
Commercial name                          : DTS-HD Master Audio
Codec ID                                 : A_DTS
Duration                                 : 4 h 23 min
Bit rate mode                            : Variable
Bit rate                                 : 4 566 kb/s
Channel(s)                               : 7 channels
Channel layout                           : C L R Ls Rs LFE Cb
Sampling rate                            : 48.0 kHz
Frame rate                               : 93.750 FPS (512 SPF)
Bit depth                                : 24 bits
Compression mode                         : Lossless
Stream size                              : 8.40 GiB (5%)
Title                                    : AVO.Ryabov
Language                                 : Russian
Default                                  : No
Forced                                   : No

Audio #10
ID                                       : 11
Format                                   : DTS ES XXCH XLL
Format/Info                              : Digital Theater Systems
Commercial name                          : DTS-HD Master Audio
Codec ID                                 : A_DTS
Duration                                 : 4 h 23 min
Bit rate mode                            : Variable
Bit rate                                 : 4 566 kb/s
Channel(s)                               : 7 channels
Channel layout                           : C L R Ls Rs LFE Cb
Sampling rate                            : 48.0 kHz
Frame rate                               : 93.750 FPS (512 SPF)
Bit depth                                : 24 bits
Compression mode                         : Lossless
Stream size                              : 8.40 GiB (5%)
Title                                    : AVO.Gavrilov
Language                                 : Russian
Default                                  : No
Forced                                   : No

Audio #11
ID                                       : 12
Format                                   : DTS ES XXCH XLL
Format/Info                              : Digital Theater Systems
Commercial name                          : DTS-HD Master Audio
Codec ID                                 : A_DTS
Duration                                 : 4 h 23 min
Bit rate mode                            : Variable
Bit rate                                 : 4 576 kb/s
Channel(s)                               : 7 channels
Channel layout                           : C L R Ls Rs LFE Cb
Sampling rate                            : 48.0 kHz
Frame rate                               : 93.750 FPS (512 SPF)
Bit depth                                : 24 bits
Compression mode                         : Lossless
Stream size                              : 8.41 GiB (5%)
Title                                    : AVO.Serbin
Language                                 : Russian
Default                                  : No
Forced                                   : No

Audio #12
ID                                       : 13
Format                                   : AC-3
Format/Info                              : Audio Coding 3
Commercial name                          : Dolby Digital
Codec ID                                 : A_AC3
Duration                                 : 4 h 23 min
Bit rate mode                            : Constant
Bit rate                                 : 192 kb/s
Channel(s)                               : 2 channels
Channel layout                           : L R
Sampling rate                            : 48.0 kHz
Frame rate                               : 31.250 FPS (1536 SPF)
Compression mode                         : Lossy
Stream size                              : 362 MiB (0%)
Title                                    : UKR.MVO.1+1
Language                                 : Ukrainian
Service kind                             : Complete Main
Default                                  : No
Forced                                   : No

Audio #13
ID                                       : 14
Format                                   : AC-3
Format/Info                              : Audio Coding 3
Commercial name                          : Dolby Digital
Codec ID                                 : A_AC3
Duration                                 : 4 h 23 min
Bit rate mode                            : Constant
Bit rate                                 : 192 kb/s
Channel(s)                               : 2 channels
Channel layout                           : L R
Sampling rate                            : 48.0 kHz
Frame rate                               : 31.250 FPS (1536 SPF)
Compression mode                         : Lossy
Stream size                              : 362 MiB (0%)
Title                                    : UKR.MVO.NovyKanal
Language                                 : Ukrainian
Service kind                             : Complete Main
Default                                  : No
Forced                                   : No

Text #1
ID                                       : 15
Format                                   : UTF-8
Codec ID                                 : S_TEXT/UTF8
Codec ID/Info                            : UTF-8 Plain Text
Duration                                 : 3 h 34 min
Bit rate                                 : 0 b/s
Count of elements                        : 6
Stream size                              : 239 Bytes (0%)
Title                                    : Forced (Pozitiv MM)
Language                                 : Russian
Default                                  : Yes
Forced                                   : No

Text #2
ID                                       : 16
Format                                   : UTF-8
Codec ID                                 : S_TEXT/UTF8
Codec ID/Info                            : UTF-8 Plain Text
Duration                                 : 4 h 0 min
Bit rate                                 : 44 b/s
Count of elements                        : 1809
Stream size                              : 79.1 KiB (0%)
Title                                    : Full (Pozitiv MM)
Language                                 : Russian
Default                                  : No
Forced                                   : No

Text #3
ID                                       : 17
Format                                   : UTF-8
Codec ID                                 : S_TEXT/UTF8
Codec ID/Info                            : UTF-8 Plain Text
Duration                                 : 4 h 0 min
Bit rate                                 : 44 b/s
Count of elements                        : 1805
Stream size                              : 78.8 KiB (0%)
Title                                    : Full (Henneth-Annun)
Language                                 : Russian
Default                                  : No
Forced                                   : No

Text #4
ID                                       : 18
Format                                   : ASS
Codec ID                                 : S_TEXT/ASS
Codec ID/Info                            : Advanced Sub Station Alpha
Duration                                 : 3 h 34 min
Bit rate                                 : 0 b/s
Count of elements                        : 13
Compression mode                         : Lossless
Stream size                              : 665 Bytes (0%)
Title                                    : Eng.Forced
Language                                 : English
Default                                  : No
Forced                                   : No

Text #5
ID                                       : 19
Format                                   : ASS
Codec ID                                 : S_TEXT/ASS
Codec ID/Info                            : Advanced Sub Station Alpha
Duration                                 : 4 h 5 min
Bit rate                                 : 58 b/s
Count of elements                        : 1851
Compression mode                         : Lossless
Stream size                              : 106 KiB (0%)
Title                                    : Eng.Full
Language                                 : English
Default                                  : No
Forced                                   : No

Text #6
ID                                       : 20
Format                                   : UTF-8
Codec ID                                 : S_TEXT/UTF8
Codec ID/Info                            : UTF-8 Plain Text
Duration                                 : 4 h 6 min
Bit rate                                 : 14 b/s
Count of elements                        : 507
Stream size                              : 25.5 KiB (0%)
Title                                    : Ukr.SRT.Forced
Language                                 : Ukrainian
Default                                  : No
Forced                                   : No

Text #7
ID                                       : 21
ID in the original source medium         : 4774 (0x12A6)
Format                                   : PGS
Muxing mode                              : zlib
Codec ID                                 : S_HDMV/PGS
Codec ID/Info                            : Picture based subtitle format used on BDs/HD-DVDs
Duration                                 : 4 h 5 min
Bit rate                                 : 25.8 kb/s
Count of elements                        : 3702
Stream size                              : 45.3 MiB (0%)
Title                                    : Eng.PGS.Full
Language                                 : English
Default                                  : No
Forced                                   : No
Original source medium                   : Blu-ray

Menu
00:00:00.000                             : en:Chapter 01. The Finding of the Ring
00:06:24.342                             : en:Chapter 02. Journey to the Cross-raods
00:09:21.394                             : en:Chapter 03. The Road to Isengard
00:11:21.847                             : en:Chapter 04. The Voice of Saruman
00:18:23.311                             : en:Chapter 05. Return to Edoras
00:23:05.009                             : en:Chapter 06. Gollum’s Villainy
00:27:03.330                             : en:Chapter 07. Éowyn’s Dream
00:29:00.697                             : en:Chapter 08. The Palantír
00:37:06.433                             : en:Chapter 09. Arwen’s Vision
00:40:02.567                             : en:Chapter 10. The Reforging of Narasil
00:42:03.228                             : en:Chapter 11. Minas Tirith
00:47:52.203                             : en:Chapter 12. The Decline of Gondor
00:50:18.641                             : en:Chapter 13. Cross-raods of the Fallen King
00:52:18.761                             : en:Chapter 14. “The Deep Breath Before the Plunge”
00:55:35.332                             : en:Chapter 15. Minas Morgul
00:59:36.406                             : en:Chapter 16. Sam’s Warning
01:00:23.703                             : en:Chapter 17. Pippin’s Task
01:00:50.605                             : en:Chapter 18. Osgiliath Invaded
01:04:30.075                             : en:Chapter 19. The Lighting of the Beacons
01:07:16.032                             : en:Chapter 20. Théoden’s Decision
01:10:35.314                             : en:Chapter 21. The Fall of Osgiliath
01:14:54.823                             : en:Chapter 22. The Wizard’s Pupil
01:17:21.970                             : en:Chapter 23. The Stairs of Cirith Ungol
01:19:21.799                             : en:Chapter 24. “Courage Is the Best Defense”
01:20:01.088                             : en:Chapter 25. Peregrin of the Tower Guard
01:21:26.799                             : en:Chapter 26. Allegiance to Denethor
01:23:48.941                             : en:Chapter 27. The Parting of Sam and Frodo
01:29:08.593                             : en:Chapter 28. The Sacrifice of Faramir
01:33:57.590                             : en:Chapter 29. Marshalling at Dunharrow
01:38:08.049                             : en:Chapter 30. Andûril – Flame of the West
01:42:49.705                             : en:Chapter 31. Aragorn Takes the Paths of the Dead
01:45:34.245                             : en:Chapter 32. “No More Despair”
01:46:57.453                             : en:Chapter 33. Dwimorberg – The Haunted Mountain
01:49:24.433                             : en:Chapter 34. The Muster of Rohan
01:51:09.997                             : en:Chapter 35. The Paths of the Dead
01:58:39.696                             : en:Chapter 36. The Siege of Gondor
02:07:41.500                             : en:Chapter 01. The Corsairs of Umbar
02:08:42.779                             : en:Chapter 02. Shelob’s Lair
02:17:50.450                             : en:Chapter 03. Merry’s Simple Courage
02:19:40.770                             : en:Chapter 04. Grond – The Hammer of the Underworld
02:20:17.138                             : en:Chapter 05. The Tomb of the Stewards
02:21:50.775                             : en:Chapter 06. Breaking the Gate of Gondor
02:22:57.591                             : en:Chapter 07. The Choices of Master Samwise
02:28:59.328                             : en:Chapter 08. Denethor’s Madness
02:30:04.643                             : en:Chapter 09. The Witch King’s Hour
02:32:29.663                             : en:Chapter 10. The Ride of the Rohirrim
02:36:44.084                             : en:Chapter 11. The Pyre of Denethor
02:38:51.169                             : en:Chapter 12. The Battle of the Pelennor Fields
02:43:46.714                             : en:Chapter 13. “A Far Green Country”
02:45:17.138                             : en:Chapter 14. The Nazgûl and His Prey
02:47:03.076                             : en:Chapter 15. The Black Ships
02:47:55.504                             : en:Chapter 16. Shieldmaiden of Rohan
02:48:39.757                             : en:Chapter 17. Victory at Minas Tirith
02:51:15.454                             : en:Chapter 18. The Passing of Théoden
02:53:18.160                             : en:Chapter 19. Oaths Fulfilled
02:54:25.102                             : en:Chapter 20. The Houses of Healing
02:56:41.113                             : en:Chapter 21. Pippin Looks After Merry
02:57:33.165                             : en:Chapter 22. The Tower of Cirith Ungol
03:04:29.080                             : en:Chapter 23. The Last Debate
03:06:11.433                             : en:Chapter 24. Aragorn Masters the Palantír
03:07:40.522                             : en:Chapter 25. The Captain and the White Lady
03:08:30.655                             : en:Chapter 26. In the Company of Orcs
03:12:12.043                             : en:Chapter 27. The Land of Shadow
03:16:23.753                             : en:Chapter 28. The Mouth of Sauron
03:19:39.657                             : en:Chapter 29. The Black Gate Opens
03:23:13.454                             : en:Chapter 30. “I Can’t Carry It for you … but I Can Carry You.”
03:25:26.253                             : en:Chapter 31. The Last Move
03:26:29.358                             : en:Chapter 32. Mount Doom
03:28:25.432                             : en:Chapter 33. “The Eagles Are Coming!”
03:28:59.758                             : en:Chapter 34. The Crack of Doom
03:34:38.012                             : en:Chapter 35. Sauron Defeated
03:36:51.396                             : en:Chapter 36. The End of All Things
03:40:20.396                             : en:Chapter 37. The Fellowship Reunited
03:42:43.497                             : en:Chapter 38. The Return of the King
03:47:36.540                             : en:Chapter 39. Homeward Bound
03:52:18.447                             : en:Chapter 40. The Grey havens
04:01:37.047                             : en:Chapter 41. End Credits
04:12:44.463                             : en:Chapter 42. Fan Club Credits

4K蓝光[原盘+REMUX]资源,因新种推荐使用qBittorrent、uTorrent等下载软件,有条件的推荐115更好的下载软件!

指环王1:魔戒再现(俄版)(139.90GB)
The.Lord.of.the.Rings.The.Fellowship.of.the.Ring.2001.D.MVO.AVO.BDREMUX.2160p.HDR.DV.seleZen-【4K蓝光REMUX】
游客,如果您要查看本帖隐藏内容请回复

指环王2:双塔奇兵(俄版)(162.49GB)
The.Lord.of.the.Rings_The.Two.Towers.2002.BDRemux.2160p.DV.HDR.TeamHD.mkv-【4K蓝光REMUX】
游客,如果您要查看本帖隐藏内容请回复

指环王3:王者无敌(俄版)(180.18GB)
The.Lord.of.the.Rings_The.Return.of.the.King.2003.BDRemux.2160p.DV.HDR.kinozal.mkv-【4K蓝光REMUX】
游客,如果您要查看本帖隐藏内容请回复











上一篇:寂静之地2(内嵌中字)(2012) 4K蓝光[原盘+REMUX]版本下载
下一篇:奇妙的海洋 /Wonders of the Sea 3D (2017) (俄版)4K蓝光REMUX 版本下载
回复

使用道具 举报

41

主题

1471

帖子

4211

积分

4K家园VIP

Rank: 9Rank: 9Rank: 9

积分
4211
发表于 2021-9-11 22:49:22 | 显示全部楼层
多发些资源啊
回复 支持 反对

使用道具 举报

0

主题

1

帖子

6

积分

新手上路

Rank: 1

积分
6
发表于 2021-9-12 05:49:40 | 显示全部楼层
找了很久了
回复 支持 反对

使用道具 举报

0

主题

14

帖子

3688

积分

中级会员

Rank: 4

积分
3688
发表于 2021-9-12 06:05:09 | 显示全部楼层
谢谢分享好电影
回复 支持 反对

使用道具 举报

4

主题

1176

帖子

3556

积分

4K家园VIP

Rank: 9Rank: 9Rank: 9

积分
3556
发表于 2021-9-12 07:46:52 | 显示全部楼层
前排顶起
回复 支持 反对

使用道具 举报

3

主题

1321

帖子

3809

积分

4K家园VIP

Rank: 9Rank: 9Rank: 9

积分
3809
发表于 2021-9-12 08:26:27 | 显示全部楼层
这个资源我记得是一套的,楼主还有没有
回复 支持 反对

使用道具 举报

1

主题

1676

帖子

4636

积分

4K家园VIP

Rank: 9Rank: 9Rank: 9

积分
4636
发表于 2021-9-12 09:01:03 | 显示全部楼层
4K家园不错,希望这种资源越多越好
回复 支持 反对

使用道具 举报

44

主题

1458

帖子

4192

积分

4K家园VIP

Rank: 9Rank: 9Rank: 9

积分
4192
发表于 2021-9-12 12:37:23 来自手机 | 显示全部楼层
楼猪辛苦了,支持一下分享好资源
回复 支持 反对

使用道具 举报

0

主题

1

帖子

6

积分

新手上路

Rank: 1

积分
6
发表于 2021-9-12 13:23:11 来自手机 | 显示全部楼层
顶起
回复

使用道具 举报

4

主题

253

帖子

2270

积分

4K家园VIP

Rank: 9Rank: 9Rank: 9

积分
2270
发表于 7 天前 | 显示全部楼层
这个nb啊,百级!
回复 支持 反对

使用道具 举报

您需要登录后才可以回帖 登录 | 立即注册

本版积分规则

精彩图文
Archiver|手机版|TAG|Sitemap|新帖|专题|联系我们:邮箱: 4kjia.com@gmail.com   

4k家园   ©2019