[4K电影] 阿珠与阿花 / 两朵校花 (1997) 4K高清下载/13.77GB

[复制链接]

46

主题

1412

帖子

4050

积分

4K家园VIP

Rank: 9Rank: 9Rank: 9

积分
4050
 楼主| 发表于 2021-7-23 18:01:31 | 显示全部楼层 |阅读模式

999_副本_meitu_5.jpg

◎译  名 阿珠与阿花/两朵校花/罗米与米歇尔的高中同学会/茶煲双妹唛
◎片  名 Romy and Michele's High School Reunion
◎年  代 1997
◎产  地 美国
◎类  别 喜剧
◎语  言 英语
◎上映日期 1997-04-25
◎豆瓣评分 6.6/10 from 1255 users
◎豆瓣链接 https://movie.douban.com/subject/1296639/
◎片  长 92 分钟
◎导  演 大卫·米尔金 David Mirkin
◎主  演 Veronica Grey Veronica Grey
      泰特·泰勒 Tate Taylor
      Will Klipstine Will Klipstine
      Alison Gale Alison Gale
      帕特·克劳福德·布朗 Pat Crawford Brown
      Ricky Paull Goldin Ricky Paull Goldin
      艾伦·卡明 Alan Cumming
      伊莲·亨德里克斯 Elaine Hendrix
      米娅·柯泰特 Mia Cottet
      贾斯汀·塞洛克斯 Justin Theroux
      贾克波·瓦格斯 Jacob Vargas
      米拉·索维诺 Mira Sorvino
      詹妮安·加罗法洛 Janeane Garofalo
      卡穆琳·曼海姆 Camryn Manheim
      朱丽娅·坎贝尔 Julia Campbell
      克里斯汀·鲍尔 Kristin Bauer
      丽莎·库卓 Lisa Kudrow
      文森特·温特莱斯卡 Vincent Ventresca
      凯茜·朗 Kathy Long
      尼尔·迪克森 Neil Dickson


◎简  介

  在曾经的青葱岁月中,罗米(米拉·索维诺 Mira Sorvino 饰)和米歇尔(莉莎·库卓 Lisa Kudrow 饰)是校园里靓丽的风景线,作风张扬又别具一格的两人在吸引众人眼球的同时也遭到了不少非议。如今,早已经走入社会的两人依旧维持着当初的友谊,只是,她们离曾经的梦想和梦想中的生活却很远很远。

  即将举办的高中同学会犹如一道闪电照亮了两人平庸的生活,在虚荣心的驱使下,她们决定乔装打扮一番,企图再度找回做“女王”的感觉。不幸的是,在同学会上,曾经的死对头希瑟(詹尼安·吉劳法罗 Janeane Garofalo 饰)毫不留情的拆穿了罗米和米歇尔苦心营造的假象,就在两人窘迫不已之时,一度被嘲笑为“书呆子”的男孩桑迪(艾伦·卡明 Alan Cumming 饰)变身百万富翁出现在了她们的面前。
Video
ID : 1
Format : HEVC
Format/Info : High Efficiency Video Coding
Format profile : Main 10@L5@High
HDR format : SMPTE ST 2086, HDR10 compatible
Codec ID : V_MPEGH/ISO/HEVC
Duration : 1 h 31 min
Bit rate : 16.3 Mb/s
Width : 3 840 pixels
Height : 2 160 pixels
Display aspect ratio : 16:9
Frame rate mode : Constant
Frame rate : 23.976 (24000/1001/189150) FPS
Color space : YUV
Chroma subsampling : 4:2:0
Bit depth : 10 bits
Bits/(Pixel*Frame) : 0.082
Stream size : 10.5 GiB (76%)
Language : English
Default : Yes
Forced : No
Color range : Limited
Color primaries : BT.2020
Transfer characteristics : PQ
Matrix coefficients : BT.2020 non-constant
Mastering display color primaries : BT.2020
Mastering display luminance : min: 0.0001 cd/m2, max: 1000 cd/m2

Audio #1
ID : 2
Format : DTS XLL
Format/Info : Digital Theater Systems
Commercial name : DTS-HD Master Audio
Codec ID : A_DTS
Duration : 1 h 31 min
Bit rate mode : Variable
Bit rate : 4 484 kb/s
Channel(s) : 6 channels
Channel layout : C L R Ls Rs LFE
Sampling rate : 48.0 kHz
Frame rate : 93.750 FPS (512 SPF)
Bit depth : 24 bits
Compression mode : Lossless
Stream size : 2.88 GiB (21%)
Language : English
Default : Yes
Forced : No

Audio #2
ID : 3
Format : AC-3
Format/Info : Audio Coding 3
Commercial name : Dolby Digital
Codec ID : A_AC3
Duration : 1 h 31 min
Bit rate mode : Constant
Bit rate : 640 kb/s
Channel(s) : 6 channels
Channel layout : L R C LFE Ls Rs
Sampling rate : 48.0 kHz
Frame rate : 31.250 FPS (1536 SPF)
Compression mode : Lossy
Stream size : 421 MiB (3%)
Language : English
Service kind : Complete Main
Default : No
Forced : No

Text #1
ID : 4
Format : UTF-8
Codec ID : S_TEXT/UTF8
Codec ID/Info : UTF-8 Plain Text
Duration : 1 h 30 min
Bit rate : 86 b/s
Count of elements : 1533
Stream size : 57.2 KiB (0%)
Title : English [CC]
Language : English
Default : Yes
Forced : No

Text #2
ID : 5
Format : UTF-8
Codec ID : S_TEXT/UTF8
Codec ID/Info : UTF-8 Plain Text
Duration : 1 h 30 min
Bit rate : 86 b/s
Count of elements : 1533
Stream size : 57.4 KiB (0%)
Title : English (UK) [CC]
Language : English
Default : No
Forced : No

Text #3
ID : 6
Format : UTF-8
Codec ID : S_TEXT/UTF8
Codec ID/Info : UTF-8 Plain Text
Duration : 1 h 28 min
Bit rate : 48 b/s
Count of elements : 758
Stream size : 31.3 KiB (0%)
Title : Dansk
Language : Danish
Default : No
Forced : No

Text #4
ID : 7
Format : UTF-8
Codec ID : S_TEXT/UTF8
Codec ID/Info : UTF-8 Plain Text
Duration : 1 h 30 min
Bit rate : 66 b/s
Count of elements : 1674
Stream size : 44.1 KiB (0%)
Title : Espa?ol (Latinoamericano) [CC]
Language : Spanish
Default : No
Forced : No

Text #5
ID : 8
Format : UTF-8
Codec ID : S_TEXT/UTF8
Codec ID/Info : UTF-8 Plain Text
Duration : 1 h 27 min
Bit rate : 66 b/s
Count of elements : 1210
Stream size : 42.2 KiB (0%)
Title : Fran?ais (Canadien)
Language : French
Default : No
Forced : No

Text #6
ID : 9
Format : UTF-8
Codec ID : S_TEXT/UTF8
Codec ID/Info : UTF-8 Plain Text
Duration : 1 h 28 min
Bit rate : 85 b/s
Count of elements : 1423
Stream size : 55.7 KiB (0%)
Title : Fran?ais [CC]
Language : French
Default : No
Forced : No

Text #7
ID : 10
Format : UTF-8
Codec ID : S_TEXT/UTF8
Codec ID/Info : UTF-8 Plain Text
Duration : 1 h 27 min
Bit rate : 48 b/s
Count of elements : 747
Stream size : 30.6 KiB (0%)
Title : Nederlands
Language : Dutch
Default : No
Forced : No

Text #8
ID : 11
Format : UTF-8
Codec ID : S_TEXT/UTF8
Codec ID/Info : UTF-8 Plain Text
Duration : 1 h 28 min
Bit rate : 48 b/s
Count of elements : 756
Stream size : 31.1 KiB (0%)
Title : Norsk
Language : Norwegian
Default : No
Forced : No

Text #9
ID : 12
Format : UTF-8
Codec ID : S_TEXT/UTF8
Codec ID/Info : UTF-8 Plain Text
Duration : 1 h 27 min
Bit rate : 57 b/s
Count of elements : 1210
Stream size : 37.4 KiB (0%)
Title : Português (Brasil)
Language : Portuguese
Default : No
Forced : No

Text #10
ID : 13
Format : UTF-8
Codec ID : S_TEXT/UTF8
Codec ID/Info : UTF-8 Plain Text
Duration : 1 h 28 min
Bit rate : 51 b/s
Count of elements : 761
Stream size : 33.5 KiB (0%)
Title : Suomi
Language : Finnish
Default : No
Forced : No

Text #11
ID : 14
Format : UTF-8
Codec ID : S_TEXT/UTF8
Codec ID/Info : UTF-8 Plain Text
Duration : 1 h 28 min
Bit rate : 48 b/s
Count of elements : 755
Stream size : 31.0 KiB (0%)
Title : Svenska
Language : Swedish
Default : No
Forced : No

Text #12
ID : 15
Format : UTF-8
Codec ID : S_TEXT/UTF8
Codec ID/Info : UTF-8 Plain Text
Duration : 1 h 26 min
Bit rate : 53 b/s
Count of elements : 1018
Stream size : 33.9 KiB (0%)
Title : íslenska
Language : Icelandic
Default : No
Forced : No

Menu
00:00:00.000 : Opening Credits
00:03:36.175 : Clubbing
00:05:44.386 : Old Classmate
00:12:23.201 : Loners
00:17:23.001 : Prom Night
00:25:35.910 : Motivation
00:29:04.576 : Job and Man Hunt
00:36:03.787 : Bargaining For a Car
00:42:13.656 : Businesswoman\'s Special
00:43:25.144 : Disagreement
00:47:44.445 : Dreaming
01:00:23.120 : Reunion
01:13:01.794 : Tongue-Lashing
01:17:25.683 : Dance Partners
01:23:26.794 : Shoptalk
01:28:34.184 : End Credits



下载链接:
游客,如果您要查看本帖隐藏内容请回复






上一篇:浮生梦 / My Cousin Rachel (2017) 4K高清下载/15.25GB
下一篇:最长的旅程 / The Longest Ride (2015) 4K高清下载/19.45GB
回复

使用道具 举报

1

主题

1283

帖子

3695

积分

4K家园VIP

Rank: 9Rank: 9Rank: 9

积分
3695
发表于 2021-7-23 18:01:36 | 显示全部楼层
路过 帮顶 嘿嘿
回复 支持 反对

使用道具 举报

0

主题

5838

帖子

1万

积分

4K家园VIP

Rank: 9Rank: 9Rank: 9

积分
13919
发表于 2021-7-23 18:50:30 | 显示全部楼层
太好啦&萬分感謝版主的無私發佈分享%
回复 支持 反对

使用道具 举报

3

主题

1235

帖子

3723

积分

4K家园VIP

Rank: 9Rank: 9Rank: 9

积分
3723
发表于 2021-7-24 03:47:54 | 显示全部楼层
回复 支持 反对

使用道具 举报

1

主题

1386

帖子

3990

积分

4K家园VIP

Rank: 9Rank: 9Rank: 9

积分
3990
发表于 2021-7-24 06:20:02 | 显示全部楼层
高手云集 果断围观
回复 支持 反对

使用道具 举报

37

主题

1439

帖子

4117

积分

4K家园VIP

Rank: 9Rank: 9Rank: 9

积分
4117
发表于 2021-7-25 03:37:25 | 显示全部楼层
顶起顶起顶起
回复 支持 反对

使用道具 举报

1

主题

1369

帖子

3941

积分

中级会员

Rank: 4

积分
3941
发表于 2021-7-25 08:46:52 | 显示全部楼层
OMG!介是啥东东!!!
回复 支持 反对

使用道具 举报

0

主题

16

帖子

106

积分

4K家园VIP

Rank: 9Rank: 9Rank: 9

积分
106
发表于 2021-7-29 09:34:57 | 显示全部楼层
经典电影
回复

使用道具 举报

您需要登录后才可以回帖 登录 | 立即注册

本版积分规则

精彩图文
Archiver|手机版|TAG|Sitemap|新帖|专题|联系我们:邮箱: 4kjia.com@gmail.com   

4k家园   ©2019