[4Kjia独享4K资源] 杀手妻子的保镖 / 王牌保镖2 (2021) 4K高清下载/14.72GB

  [复制链接]

872

主题

927

帖子

7970

积分

超级版主

Rank: 8Rank: 8

积分
7970
 楼主| 发表于 2021-7-23 22:10:51 | 显示全部楼层 |阅读模式
本帖最后由 最爱4K哟 于 2021-7-24 21:19 编辑

QQ图片20210723215528_副本_meitu_1.jpg

◎译  名 杀手妻子的保镖/The Hitman's Bodyguard 2/保镳救杀手2(港)/王牌保镖2
◎片  名 The Hitman's Wife's Bodyguard
◎年  代 2021
◎产  地 美国,英国
◎类  别 喜剧 / 动作 / 犯罪
◎语  言 英语
◎上映日期 2021-06-16(美国)
◎IMDb评分  6.2/10 from 20286 users
◎IMDb链接  https://www.imdb.com/title/tt8385148/
◎豆瓣评分 6.4/10 from 7420 users
◎豆瓣链接 https://movie.douban.com/subject/30216729/
◎片  长 116分钟
◎导  演 帕特里克·休斯 Patrick Hughes
◎编  剧 汤姆·奥康纳 Tom O'Connor / 布兰登·墨菲 Brandon Murphy / 菲利普·墨菲 Phillip Murphy
◎主  演 瑞恩·雷诺兹 Ryan Reynolds
      塞缪尔·杰克逊 Samuel L. Jackson
      萨尔玛·海耶克 Salma Hayek
      弗兰克·格里罗 Frank Grillo
      理查德·E·格兰特 Richard E. Grant
      安东尼奥·班德拉斯 Antonio Banderas
      摩根·弗里曼 Morgan Freeman
      斯图尔特·亚历山大 Stewart Alexander
      早乙女津和雪 Tsuwayuki Saotome
      丽贝卡·弗朗特 Rebecca Front
      诺杰·赫拉尔 Noortje Herlaar
      迈克尔·戈尔 Michael Gor
      乔治·格伦 Georgie Glen
      巴里·阿茨玛 Barry Atsma
      蒂内·朱斯特拉 Tine Joustra
      加里·奥德曼 Gary Oldman
      玛丽安娜·维基尔斯卡 Mariana Vekilska
      布莱恩·卡斯佩 Brian Caspe
      丹柯约尔丹诺夫 Danko Jordanov
      西蒙·安德鲁 Simón Andreu
      塞尔吉奥·托里科 Sergio Torrico
      布莱克·瑞特森 Blake Ritson
      汤姆·霍珀 Tom Hopper
      加布里埃拉·赖特 Gabriella Wright
      卡罗琳·古多尔 Caroline Goodall
      爱丽丝·麦克米兰 Alice McMillan
      伊万·朱里奇 Ivan Djuricic
      米尔托斯·耶罗勒曼 Miltos Yerolemou
      帕特里克·休斯 Patrick Hughes
      德拉甘·米恰诺维奇 Dragan Mi?anovi?
      托米·梅 Tomi May
      乔纳斯·塔金顿 Jonas Talkington
      小恩佐·斯奎利诺 Enzo Squillino Jr.
      吉欧里奥·贝鲁蒂 Giulio Berruti
      鲁道夫·科萨托 Rodolfo Corsato
      卡蒙提普·克里希·阿什顿 Kamontip Krissy Ashton
      贝卡·宝陵 Bekka Bowling
      贝恩·科拉科 Bern Colla?o
      内森·库珀 Nathan Cooper
      罗杰·金 Roger King
      阿德南·昆迪 Adnan Kundi
      马雷克·里奇滕博格 Marek Lichtenberg
      希滕·珀泰尔 Hiten Patel
      佩特拉·武凯利奇 Petra Vukelic
      Harry Taurasi Harry Taurasi
      Amar Bukvic Amar Bukvic
      Csilla Barath-Bastaic Csilla Barath-Bastaic
      James Maclurcan James Maclurcan




◎简  介

  这对世上最要命的混搭-——保镖迈克尔·布莱斯和杀手大流士·金凯,再次执行一项要命任务。
  大流士反复无常更胜以往的妻子——臭名昭著的国际诈骗家索尼娅·金凯迫使布莱斯出山。
  布莱斯被这俩最危险的保护对象逼得走投无路,三人在一个全球级的阴谋中陷入困境,很快还发现他们是一个大疯子复仇欧洲的唯一障碍。
  摩根·弗里曼也加入了这场有趣而又致命的乱局,他饰演的是——嗯,不得不看。
General
Complete name                  : D:\4K原盘下载\The.Hitmans.Wifes.Bodyguard.2021.2160p.WEB-DL.DDP5.1.Atmos.HEVC-EVO.mkv
Format                         : Matroska
Format version                 : Version 4
File size                      : 14.7 GiB
Duration                       : 1 h 39 min
Overall bit rate               : 21.1 Mb/s
Encoded date                   : UTC 2021-07-23 04:04:13
Writing application            : mkvmerge v19.0.0 ('Brave Captain') 64-bit
Writing library                : libebml v1.3.5 + libmatroska v1.4.8

Video
ID                             : 1
Format                         : HEVC
Format/Info                    : High Efficiency Video Coding
Format profile                 : Main 10@L5@High
Codec ID                       : V_MPEGH/ISO/HEVC
Duration                       : 1 h 39 min
Bit rate                       : 20.4 Mb/s
Width                          : 3 832 pixels
Height                         : 1 600 pixels
Display aspect ratio           : 2.40:1
Frame rate mode                : Constant
Frame rate                     : 23.976 (24000/1001) FPS
Color space                    : YUV
Chroma subsampling             : 4:2:0
Bit depth                      : 10 bits
Bits/(Pixel*Frame)             : 0.139
Stream size                    : 14.2 GiB (96%)
Default                        : Yes
Forced                         : No
Color range                    : Limited
Color primaries                : BT.709
Transfer characteristics       : BT.709
Matrix coefficients            : BT.709

Audio
ID                             : 2
Format                         : E-AC-3 JOC
Format/Info                    : Enhanced AC-3 with Joint Object Coding
Commercial name                : Dolby Digital Plus with Dolby Atmos
Codec ID                       : A_EAC3
Duration                       : 1 h 39 min
Bit rate mode                  : Constant
Bit rate                       : 768 kb/s
Channel(s)                     : 6 channels
Channel layout                 : L R C LFE Ls Rs
Sampling rate                  : 48.0 kHz
Frame rate                     : 31.250 FPS (1536 SPF)
Compression mode               : Lossy
Stream size                    : 548 MiB (4%)
Title                          : English
Language                       : English
Service kind                   : Complete Main
Default                        : No
Forced                         : No
Complexity index               : 16
Number of dynamic objects      : 15
Bed channel count              : 1 channel
Bed channel configuration      : LFE

迅雷下载资源速度为零,资源敏感和谐时,推荐使用qBittorrent等下载软件,有条件的推荐115更好的下载软件!

下载链接:
****此区域为收费内容****    需支付 9 金币后可查看立即购买

游客,如果您要查看本帖隐藏内容请回复




上一篇:巴顿将军(内封中字) / Patton (1970) 4K高清下载/24.44GB
下一篇:史努比的故事:查理布朗的感恩节 (2021) 4K高清下载/4.43GB
回复

使用道具 举报

6

主题

1149

帖子

3471

积分

4K家园VIP

Rank: 9Rank: 9Rank: 9

积分
3471
发表于 2021-7-23 22:10:58 | 显示全部楼层
楼猪辛苦了,支持一下分享好资源
回复 支持 反对

使用道具 举报

0

主题

5838

帖子

1万

积分

4K家园VIP

Rank: 9Rank: 9Rank: 9

积分
13919
发表于 2021-7-23 22:57:37 | 显示全部楼层
太好啦&萬分感謝版主的無私發佈分享%
回复 支持 反对

使用道具 举报

0

主题

71

帖子

5117

积分

高级会员

Rank: 3Rank: 3

积分
5117
发表于 2021-7-23 23:25:45 | 显示全部楼层
感謝版主的無私分享
回复 支持 反对

使用道具 举报

1

主题

1203

帖子

3625

积分

4K家园VIP

Rank: 9Rank: 9Rank: 9

积分
3625
发表于 2021-7-24 09:28:40 来自手机 | 显示全部楼层
路过 帮顶 嘿嘿
回复 支持 反对

使用道具 举报

39

主题

1380

帖子

3902

积分

4K家园VIP

Rank: 9Rank: 9Rank: 9

积分
3902
发表于 2021-7-24 09:38:36 来自手机 | 显示全部楼层
呵呵,低调,低调!
回复 支持 反对

使用道具 举报

55

主题

1546

帖子

4454

积分

4K家园VIP

Rank: 9Rank: 9Rank: 9

积分
4454
发表于 2021-7-24 11:31:36 | 显示全部楼层
为了三千积分!
回复 支持 反对

使用道具 举报

2

主题

1129

帖子

3407

积分

4K家园VIP

Rank: 9Rank: 9Rank: 9

积分
3407
发表于 2021-7-24 12:35:51 | 显示全部楼层
前排顶起
回复 支持 反对

使用道具 举报

0

主题

13

帖子

60

积分

新手上路

Rank: 1

积分
60
发表于 2021-7-24 15:46:16 | 显示全部楼层
感觉很好看
回复 支持 反对

使用道具 举报

0

主题

27

帖子

202

积分

4K家园VIP

Rank: 9Rank: 9Rank: 9

积分
202
QQ
发表于 2021-7-24 21:39:11 | 显示全部楼层
666666666666666666
回复 支持 反对

使用道具 举报

您需要登录后才可以回帖 登录 | 立即注册

本版积分规则

精彩图文
Archiver|手机版|TAG|Sitemap|新帖|专题|联系我们:邮箱: 4kjia.com@gmail.com   

4k家园   ©2019