[国家地理] [4K 国家地理] 法亚尔(2021)[2160P/MKV/314MB]

[复制链接]

2498

主题

2808

帖子

2万

积分

超级版主

Rank: 8Rank: 8

积分
23453
 楼主| 发表于 2021-8-28 21:17:06 | 显示全部楼层 |阅读模式

法亚尔(314MB)Fayal_Faial.2021.WEBRip.2160p.mkv_20210816_154735.405.jpg 法亚尔(314MB)Fayal_Faial.2021.WEBRip.2160p.mkv_20210816_154746.805.jpg 法亚尔(314MB)Fayal_Faial.2021.WEBRip.2160p.mkv_20210816_154806.485.jpg 法亚尔(314MB)Fayal_Faial.2021.WEBRip.2160p.mkv_20210816_154820.694.jpg 法亚尔(314MB)Fayal_Faial.2021.WEBRip.2160p.mkv_20210816_154834.989.jpg 法亚尔(314MB)Fayal_Faial.2021.WEBRip.2160p.mkv_20210816_154845.822.jpg

影片信息
片名:法亚尔
上映时间: 2021 年
国家:葡萄牙
时长: 00 : 02 : 34
类型: 物种
导演:钉住你的脚步

关于电影:

        法亚尔是亚速尔群岛 9 个有人居住的岛屿之一。

General
Complete name                  : E:\4K@电影 4K@MV\法亚尔(314MB)Fayal_Faial.2021.WEBRip.2160p.mkv
Format                         : Matroska
Format version                 : Version 4
File size                      : 314 MiB
Duration                       : 2 min 34 s
Overall bit rate               : 17.1 Mb/s
Encoded date                   : UTC 2021-08-13 17:39:42
Writing application            : mkvmerge v60.0.0 ('Are We Copies?') 64-bit
Writing library                : libebml v1.4.2 + libmatroska v1.6.4 / Lavf58.29.100

Video
ID                             : 1
Format                         : VP9
Codec ID                       : V_VP9
Duration                       : 2 min 34 s
Bit rate                       : 16.9 Mb/s
Width                          : 3 840 pixels
Height                         : 2 160 pixels
Display aspect ratio           : 16:9
Frame rate mode                : Constant
Frame rate                     : 29.970 (30000/1001) FPS
Color space                    : YUV
Bits/(Pixel*Frame)             : 0.068
Stream size                    : 311 MiB (99%)
Default                        : Yes
Forced                         : No
Color range                    : Limited
Color primaries                : BT.709
Transfer characteristics       : BT.709
Matrix coefficients            : BT.709

Audio
ID                             : 2
Format                         : Opus
Codec ID                       : A_OPUS
Duration                       : 2 min 34 s
Bit rate                       : 140 kb/s
Channel(s)                     : 2 channels
Channel layout                 : L R
Sampling rate                  : 48.0 kHz
Frame rate                     : 50.005 FPS (960 SPF)
Bit depth                      : 32 bits
Compression mode               : Lossy
Stream size                    : 2.58 MiB (1%)
Default                        : Yes
Forced                         : No
下载地址:
****此区域为收费内容****    需支付 15 金币后可查看立即购买






上一篇:[4K 国家地理] 拉帕尔马(2021)[2160P/MKV/291MB]
下一篇:[4K 国家地理] 景色东京(2021)[2160P/MKV/504MB
回复

使用道具 举报

54

主题

1419

帖子

4101

积分

4K家园VIP

Rank: 9Rank: 9Rank: 9

积分
4101
发表于 2021-8-28 21:17:11 | 显示全部楼层
为保住菊花,这个一定得回复!
回复 支持 反对

使用道具 举报

0

主题

5837

帖子

1万

积分

4K家园VIP

Rank: 9Rank: 9Rank: 9

积分
13898
发表于 2021-8-29 07:51:58 | 显示全部楼层
葡萄牙法亞爾4k
回复 支持 反对

使用道具 举报

2

主题

1336

帖子

4026

积分

4K家园VIP

Rank: 9Rank: 9Rank: 9

积分
4026
发表于 2021-8-30 10:58:40 | 显示全部楼层
LZ是天才,坚定完毕
回复 支持 反对

使用道具 举报

3

主题

1550

帖子

4290

积分

4K家园VIP

Rank: 9Rank: 9Rank: 9

积分
4290
发表于 2021-9-2 16:55:19 来自手机 | 显示全部楼层
前排支持下
回复 支持 反对

使用道具 举报

2

主题

1353

帖子

3909

积分

中级会员

Rank: 4

积分
3909
发表于 2021-9-3 00:32:44 | 显示全部楼层
分享的不错,希望楼主继续分享
回复 支持 反对

使用道具 举报

0

主题

601

帖子

2094

积分

注册会员

Rank: 2

积分
2094
发表于 2021-9-5 23:05:09 | 显示全部楼层
谢谢楼主辛苦劳动
回复 支持 反对

使用道具 举报

1

主题

1091

帖子

3293

积分

4K家园VIP

Rank: 9Rank: 9Rank: 9

积分
3293
发表于 2021-9-8 06:36:25 | 显示全部楼层
支持一下楼主发表的内容
回复 支持 反对

使用道具 举报

您需要登录后才可以回帖 登录 | 立即注册

本版积分规则

精彩图文
Archiver|手机版|TAG|Sitemap|新帖|专题|联系我们:邮箱: 4kjia.com@gmail.com   

4k家园   ©2019