[国家地理] [4K 国家地理] 景色东京(2021)[2160P/MKV/504MB

[复制链接]

2497

主题

2804

帖子

2万

积分

超级版主

Rank: 8Rank: 8

积分
23430
 楼主| 发表于 2021-8-27 10:48:11 | 显示全部楼层 |阅读模式

东京(504MB) (2021) Tokio_Tokyo.2021.WEBRip.2160p.mkv_20210816_155224.085.jpg 东京(504MB) (2021) Tokio_Tokyo.2021.WEBRip.2160p.mkv_20210816_155242.341.jpg 东京(504MB) (2021) Tokio_Tokyo.2021.WEBRip.2160p.mkv_20210816_155254.005.jpg 东京(504MB) (2021) Tokio_Tokyo.2021.WEBRip.2160p.mkv_20210816_155302.150.jpg 东京(504MB) (2021) Tokio_Tokyo.2021.WEBRip.2160p.mkv_20210816_155308.638.jpg 东京(504MB) (2021) Tokio_Tokyo.2021.WEBRip.2160p.mkv_20210816_155317.806.jpg

影片信息
片名:东京
上映时间: 2021
国家:日本
时长: 00 : 03 : 10
类型: 物种
导演:清水大辅

影片简介:

        东京是日本的首都和最大城市,也是日本的行政、金融、工业和政治中心。

General
Complete name                  : E:\4K@电影 4K@MV\景色东京(504MB) (2021) Tokio_Tokyo.2021.WEBRip.2160p.mkv
Format                         : Matroska
Format version                 : Version 4
File size                      : 505 MiB
Duration                       : 3 min 10 s
Overall bit rate               : 22.2 Mb/s
Encoded date                   : UTC 2021-08-14 12:43:27
Writing application            : mkvmerge v60.0.0 ('Are We Copies?') 64-bit
Writing library                : libebml v1.4.2 + libmatroska v1.6.4

Video
ID                             : 1
Format                         : AVC
Format/Info                    : Advanced Video Codec
Format profile                 : High@L5.2
Format settings                : CABAC / 5 Ref Frames
Format settings, CABAC         : Yes
Format settings, Reference fra : 5 frames
Codec ID                       : V_MPEG4/ISO/AVC
Duration                       : 3 min 10 s
Bit rate                       : 21.9 Mb/s
Width                          : 3 840 pixels
Height                         : 2 160 pixels
Display aspect ratio           : 16:9
Frame rate mode                : Constant
Frame rate                     : 29.970 (30000/1001) FPS
Color space                    : YUV
Chroma subsampling             : 4:2:0
Bit depth                      : 8 bits
Scan type                      : Progressive
Bits/(Pixel*Frame)             : 0.088
Stream size                    : 499 MiB (99%)
Writing library                : x264 core 161 r10 c347e7a
Encoding settings              : cabac=1 / ref=5 / deblock=1:0:0 / analyse=0x3:0x113 / me=hex / subme=8 / psy=1 / psy_rd=1.00:0.00 / mixed_ref=1 / me_range=16 / chroma_me=1 / trellis=2 / 8x8dct=1 / cqm=0 / deadzone=21,11 / fast_pskip=1 / chroma_qp_offset=-2 / threads=48 / lookahead_threads=8 / sliced_threads=0 / nr=0 / decimate=1 / interlaced=0 / bluray_compat=0 / stitchable=1 / constrained_intra=0 / bframes=3 / b_pyramid=2 / b_adapt=2 / b_bias=0 / direct=3 / weightb=1 / open_gop=0 / weightp=2 / keyint=infinite / keyint_min=29 / scenecut=40 / intra_refresh=0 / rc_lookahead=50 / rc=crf / mbtree=1 / crf=20.0 / qcomp=0.60 / qpmin=5 / qpmax=69 / qpstep=4 / vbv_maxrate=24200 / vbv_bufsize=66000 / crf_max=0.0 / nal_hrd=none / filler=0 / ip_ratio=1.40 / aq=1:1.00
Default                        : Yes
Forced                         : No
Color range                    : Limited
Color primaries                : BT.709
Transfer characteristics       : BT.709
Matrix coefficients            : BT.709

Audio
ID                             : 2
Format                         : AAC LC
Format/Info                    : Advanced Audio Codec Low Complexity
Codec ID                       : A_AAC-2
Duration                       : 3 min 10 s
Bit rate                       : 253 kb/s
Channel(s)                     : 2 channels
Channel layout                 : L R
Sampling rate                  : 48.0 kHz
Frame rate                     : 46.875 FPS (1024 SPF)
Compression mode               : Lossy
Delay relative to video        : -66 ms
Stream size                    : 5.77 MiB (1%)
Default                        : Yes
Forced                         : No
下载地址:
****此区域为收费内容****    需支付 15 金币后可查看立即购买





上一篇:[4K 国家地理] 法亚尔(2021)[2160P/MKV/314MB]
下一篇:[4K 国家地理] 现代化旅游圣地-迪拜(2021)[2160P/MKV/570MB
回复

使用道具 举报

3

主题

1561

帖子

4279

积分

4K家园VIP

Rank: 9Rank: 9Rank: 9

积分
4279
发表于 2021-8-27 10:48:35 来自手机 | 显示全部楼层
在撸一遍。。。
回复 支持 反对

使用道具 举报

0

主题

5837

帖子

1万

积分

4K家园VIP

Rank: 9Rank: 9Rank: 9

积分
13895
发表于 2021-8-27 11:17:18 | 显示全部楼层
景色東京4k
回复 支持 反对

使用道具 举报

1

主题

1333

帖子

3807

积分

4K家园VIP

Rank: 9Rank: 9Rank: 9

积分
3807
发表于 2021-8-28 04:07:29 | 显示全部楼层
楼主呀,,,您太有才了。。。
回复 支持 反对

使用道具 举报

1

主题

1309

帖子

3947

积分

4K家园VIP

Rank: 9Rank: 9Rank: 9

积分
3947
发表于 2021-8-31 11:53:06 | 显示全部楼层
支持一下楼主发表的内容
回复 支持 反对

使用道具 举报

0

主题

601

帖子

2094

积分

注册会员

Rank: 2

积分
2094
发表于 2021-9-5 23:05:19 | 显示全部楼层
谢谢楼主辛苦劳动
回复 支持 反对

使用道具 举报

2

主题

1639

帖子

4509

积分

4K家园VIP

Rank: 9Rank: 9Rank: 9

积分
4509
发表于 2021-9-7 07:12:19 来自手机 | 显示全部楼层
没看懂
回复 支持 反对

使用道具 举报

40

主题

1447

帖子

4103

积分

4K家园VIP

Rank: 9Rank: 9Rank: 9

积分
4103
发表于 2021-9-7 07:17:11 | 显示全部楼层
楼主呀,,,您太有才了。。。
回复 支持 反对

使用道具 举报

0

主题

1053

帖子

3365

积分

中级会员

Rank: 4

积分
3365
发表于 2021-9-9 11:28:55 | 显示全部楼层
谢楼主分享
回复 支持 反对

使用道具 举报

您需要登录后才可以回帖 登录 | 立即注册

本版积分规则

精彩图文
Archiver|手机版|TAG|Sitemap|新帖|专题|联系我们:邮箱: 4kjia.com@gmail.com   

4k家园   ©2019