[4Kjia独享4K资源] [首发资源] 特种部队:蛇眼起源 (2021) 4K高清版本下载/12.81GB

  [复制链接]

872

主题

927

帖子

7961

积分

超级版主

Rank: 8Rank: 8

积分
7961
 楼主| 发表于 2021-8-17 12:37:27 | 显示全部楼层 |阅读模式
本帖最后由 最爱4K哟 于 2021-8-18 20:20 编辑

QQ图片20210817122408_副本.png

◎译  名 特种部队:蛇眼起源 / 义勇群英:蛇眼复仇战(港) / 特种部队:蛇眼之战 (台) / 特种部队:蛇眼 / 蛇眼 / Snake Eyes
◎片  名 Snake Eyes: G.I. Joe Origins
◎年  代 2021
◎产  地 加拿大 / 美国
◎类  别 动作 / 科幻 / 冒险
◎语  言 英语
◎上映日期 2021-07-23(美国)
◎IMDb评分 5.6/10 from 6935 users
◎IMDb链接 https://www.imdb.com/title/tt8404256
◎豆瓣评分 5.2/606 from 0 users
◎豆瓣链接 https://movie.douban.com/subject/30396443/
◎片  长 121分钟
◎导  演 罗伯特·斯文克
◎编  剧 埃文·斯彼里奥托普洛斯 / 乔·施雷普内尔 / 安娜·沃特豪斯
◎主  演   亨利·戈尔丁
                   安德鲁·浩二
                   安部春香
                   平岳大
                   石田惠理
                   伊科·乌艾斯
                   彼得·门萨
                   乌苏拉·科尔维罗
                   萨玛拉·维文
                   萨缪尔·芬齐
                   史蒂文·艾瑞克
                   马克斯·阿奇博尔德
                   西蒙·钱 / 詹姆斯·廖
                   谷垣健治
                   肖恩·O.罗伯茨
                   贾森·戴



◎简  介


          亨利·戈尔丁饰演一名因背负了复杂过去而隐忍的独行者,代号蛇眼。一次偶然,他救下了岚影一族的准接班人,从而被邀请加入他们在日本的组织。在那里,岚影一族不但教会了蛇眼如何成为一名忍者,也给了他一直想要的一个家。但当蛇眼过去的秘密被逐渐揭开,他的信誉以及对组织的忠诚也将受到考验,即便这会使他会失去最亲近的人的信任。特种部队原著中的经典角色也将在《特种部队:蛇眼起源》中一一亮相。
General
Complete name                  : E:\4K@电影 4K@MV\Snake.Eyes.G.I.Joe.Origins.2021.2160p.WEB-DL.DDP5.1.Atmos.HDR.HEVC-CMRG.mkv
Format                         : Matroska
Format version                 : Version 4
File size                      : 12.8 GiB
Duration                       : 2 h 1 min
Overall bit rate               : 15.1 Mb/s
Encoded date                   : UTC 2021-08-17 04:07:14
Writing application            : mkvmerge v60.0.0 ('Are We Copies?') 64-bit
Writing library                : libebml v1.4.2 + libmatroska v1.6.4

Video
ID                             : 1
Format                         : HEVC
Format/Info                    : High Efficiency Video Coding
Format profile                 : Main 10@L5@High
HDR format                     : SMPTE ST 2086, HDR10 compatible
Codec ID                       : V_MPEGH/ISO/HEVC
Duration                       : 2 h 1 min
Bit rate                       : 14.0 Mb/s
Width                          : 3 840 pixels
Height                         : 1 608 pixels
Display aspect ratio           : 2.40:1
Frame rate mode                : Constant
Frame rate                     : 23.976 (24000/1001) FPS
Color space                    : YUV
Chroma subsampling             : 4:2:0 (Type 2)
Bit depth                      : 10 bits
Bits/(Pixel*Frame)             : 0.095
Stream size                    : 11.9 GiB (93%)
Default                        : Yes
Forced                         : No
Color range                    : Limited
Color primaries                : BT.2020
Transfer characteristics       : PQ
Matrix coefficients            : BT.2020 non-constant
Mastering display color primar : Display P3
Mastering display luminance    : min: 0.0050 cd/m2, max: 1000 cd/m2
Maximum Content Light Level    : 2132 cd/m2
Maximum Frame-Average Light Le : 380 cd/m2

Audio
ID                             : 2
Format                         : E-AC-3 JOC
Format/Info                    : Enhanced AC-3 with Joint Object Coding
Commercial name                : Dolby Digital Plus with Dolby Atmos
Codec ID                       : A_EAC3
Duration                       : 2 h 1 min
Bit rate mode                  : Constant
Bit rate                       : 768 kb/s
Channel(s)                     : 6 channels
Channel layout                 : L R C LFE Ls Rs
Sampling rate                  : 48.0 kHz
Frame rate                     : 31.250 FPS (1536 SPF)
Compression mode               : Lossy
Stream size                    : 667 MiB (5%)
Title                          : English
Language                       : English
Service kind                   : Complete Main
Default                        : No
Forced                         : No
Complexity index               : 16
Number of dynamic objects      : 15
Bed channel count              : 1 channel
Bed channel configuration      : LFE

Text
ID                             : 3
Format                         : UTF-8
Codec ID                       : S_TEXT/UTF8
Codec ID/Info                  : UTF-8 Plain Text
Title                          : French Canadian
Language                       : French
Default                        : No
Forced                         : No

迅雷下载资源速度为零,资源敏感和谐时,推荐使用qBittorrent等下载软件,有条件的推荐115更好的下载软件!

下载地址:
游客,如果您要查看本帖隐藏内容请回复

游客,如果您要查看本帖隐藏内容请回复

游客,如果您要查看本帖隐藏内容请回复

游客,如果您要查看本帖隐藏内容请回复

****此区域为收费内容****    需支付 9 金币后可查看立即购买

****此区域为收费内容****    需支付 9 金币后可查看立即购买

****此区域为收费内容****    需支付 9 金币后可查看立即购买

****此区域为收费内容****    需支付 9 金币后可查看立即购买










上一篇:亲吻亭3(内封中字) / The Kissing Booth 3 (2021) 4K高清下载/19.67GB
下一篇:厄运假期(内嵌中字) / Beckett (2021) 4K高清下载/22.44GB
回复

使用道具 举报

1

主题

1304

帖子

3766

积分

4K家园VIP

Rank: 9Rank: 9Rank: 9

积分
3766
发表于 2021-8-17 12:37:31 | 显示全部楼层
试试先,好用再说
回复 支持 反对

使用道具 举报

52

主题

1416

帖子

4078

积分

4K家园VIP

Rank: 9Rank: 9Rank: 9

积分
4078
发表于 2021-8-17 12:37:31 | 显示全部楼层
没明白
回复 支持 反对

使用道具 举报

0

主题

5838

帖子

1万

积分

4K家园VIP

Rank: 9Rank: 9Rank: 9

积分
13910
发表于 2021-8-17 12:38:41 | 显示全部楼层
太好啦&萬分感謝版主的無私發佈分享%
回复 支持 反对

使用道具 举报

0

主题

13

帖子

112

积分

新手上路

Rank: 1

积分
112
发表于 2021-8-17 13:46:58 | 显示全部楼层
很快啊~
回复

使用道具 举报

0

主题

24

帖子

746

积分

4K家园VIP

Rank: 9Rank: 9Rank: 9

积分
746
发表于 2021-8-17 16:38:37 | 显示全部楼层
还没字幕
回复

使用道具 举报

0

主题

12

帖子

147

积分

新手上路

Rank: 1

积分
147
发表于 2021-8-17 16:49:58 来自手机 | 显示全部楼层
感谢你的分享,支持你
回复 支持 反对

使用道具 举报

0

主题

15

帖子

92

积分

新手上路

Rank: 1

积分
92
发表于 2021-8-17 18:10:56 | 显示全部楼层
没有金币啊。下不了。
回复 支持 反对

使用道具 举报

0

主题

2

帖子

26

积分

新手上路

Rank: 1

积分
26
发表于 2021-8-17 19:49:34 | 显示全部楼层
我也试试先,好用再说
回复 支持 反对

使用道具 举报

0

主题

135

帖子

822

积分

新手上路

Rank: 1

积分
822
发表于 2021-8-17 20:33:48 | 显示全部楼层
感谢楼主分享好片
回复 支持 反对

使用道具 举报

您需要登录后才可以回帖 登录 | 立即注册

本版积分规则

精彩图文
Archiver|手机版|TAG|Sitemap|新帖|专题|联系我们:邮箱: 4kjia.com@gmail.com   

4k家园   ©2019