[国家地理] [4K 国家地理] 南极洲边缘城市(2021)[2160P/MKV/550MB

[复制链接]

2497

主题

2804

帖子

2万

积分

超级版主

Rank: 8Rank: 8

积分
23430
 楼主| 发表于 2021-8-24 22:08:34 | 显示全部楼层 |阅读模式

01. КИНО.mkv_20210819_214951.842.jpg 01. КИНО.mkv_20210819_214958.153.jpg 01. КИНО.mkv_20210819_215004.072.jpg 02. РЕАЛ.mkv_20210819_215946.761.jpg 02. РЕАЛ.mkv_20210819_220008.569.jpg 02. РЕАЛ.mkv_20210819_220018.753.jpg

影片信息
片名:南极洲边缘城市
上映时间: 2021
国家:俄罗斯
时长: 00:04:58
类型: 物种
导演: Ivan Golubkov

关于电影:

        南极洲边缘城市


General
Complete name                  : E:\4K@电影 4K@MV\南极洲边缘城市 (2021) WEBRip 2160p\02. РЕАЛ.mkv
Format                         : Matroska
Format version                 : Version 4
File size                      : 347 MiB
Duration                       : 2 min 15 s
Overall bit rate               : 21.5 Mb/s
Encoded date                   : UTC 2021-08-18 17:53:13
Writing application            : mkvmerge v60.0.0 ('Are We Copies?') 64-bit
Writing library                : libebml v1.4.2 + libmatroska v1.6.4 / Lavf58.29.100

Video
ID                             : 1
Format                         : VP9
Codec ID                       : V_VP9
Duration                       : 2 min 15 s
Bit rate                       : 21.4 Mb/s
Width                          : 3 840 pixels
Height                         : 2 160 pixels
Display aspect ratio           : 16:9
Frame rate mode                : Constant
Frame rate                     : 59.940 (59940/1000) FPS
Color space                    : YUV
Bits/(Pixel*Frame)             : 0.043
Stream size                    : 345 MiB (99%)
Default                        : Yes
Forced                         : No
Color range                    : Limited
Color primaries                : BT.709
Transfer characteristics       : BT.709
Matrix coefficients            : BT.709

Audio
ID                             : 2
Format                         : AAC LC
Format/Info                    : Advanced Audio Codec Low Complexity
Codec ID                       : A_AAC-2
Duration                       : 2 min 15 s
Bit rate                       : 128 kb/s
Channel(s)                     : 2 channels
Channel layout                 : L R
Sampling rate                  : 44.1 kHz
Frame rate                     : 43.066 FPS (1024 SPF)
Compression mode               : Lossy
Stream size                    : 2.07 MiB (1%)
Default                        : Yes
Forced                         : No
提示:该视频分别为01. 25fps,02. 60fps

游客,如果您要查看本帖隐藏内容请回复






上一篇:[4K 国家地理] 美景如画的阿尔卑斯山(2021)[2160P/MKV/364MB
下一篇:[4K 国家地理] 印度尼西亚风情(2020)[2160P/MKV/520MB]
回复

使用道具 举报

2

主题

1132

帖子

3412

积分

4K家园VIP

Rank: 9Rank: 9Rank: 9

积分
3412
发表于 2021-8-24 22:08:38 | 显示全部楼层
非常好,顶一下
回复 支持 反对

使用道具 举报

0

主题

5

帖子

159

积分

新手上路

Rank: 1

积分
159
发表于 2021-8-25 01:03:11 | 显示全部楼层
非常十分以及及其好
回复 支持 反对

使用道具 举报

0

主题

5837

帖子

1万

积分

4K家园VIP

Rank: 9Rank: 9Rank: 9

积分
13895
发表于 2021-8-25 08:08:32 | 显示全部楼层
太好啦&萬分感謝版主的無私發佈分享%
回复 支持 反对

使用道具 举报

0

主题

1

帖子

6

积分

新手上路

Rank: 1

积分
6
发表于 2021-8-25 09:46:10 | 显示全部楼层
非常好,顶一下
回复 支持 反对

使用道具 举报

0

主题

1631

帖子

4443

积分

4K家园VIP

Rank: 9Rank: 9Rank: 9

积分
4443
发表于 2021-8-26 07:04:46 | 显示全部楼层
看起来好像不错的样子
回复 支持 反对

使用道具 举报

0

主题

2

帖子

9

积分

新手上路

Rank: 1

积分
9
发表于 2021-8-26 08:09:56 | 显示全部楼层
ddddddddddddddddddddddddd
回复 支持 反对

使用道具 举报

1

主题

1274

帖子

3644

积分

4K家园VIP

Rank: 9Rank: 9Rank: 9

积分
3644
发表于 2021-8-26 09:41:04 | 显示全部楼层
向楼主学习
回复 支持 反对

使用道具 举报

4

主题

1241

帖子

3743

积分

4K家园VIP

Rank: 9Rank: 9Rank: 9

积分
3743
发表于 2021-8-26 16:14:35 来自手机 | 显示全部楼层
大人,此事必有蹊跷!
回复 支持 反对

使用道具 举报

0

主题

4

帖子

15

积分

新手上路

Rank: 1

积分
15
发表于 2021-8-26 18:06:02 | 显示全部楼层
感谢分享
回复

使用道具 举报

您需要登录后才可以回帖 登录 | 立即注册

本版积分规则

精彩图文
Archiver|手机版|TAG|Sitemap|新帖|专题|联系我们:邮箱: 4kjia.com@gmail.com   

4k家园   ©2019