制裁者/惩罚者 [第一季/全13集 4K下载打包][英语中字]

[复制链接]
查看: 9310|回复: 41

3591

主题

3691

帖子

2万

积分

超级版主

Rank: 8Rank: 8

积分
27907
发表于 2018-9-24 11:39:46 | 显示全部楼层 |阅读模式
本帖最后由 我是青天 于 2019-1-20 22:02 编辑

7d5834d38955e902dba4ae06d78e6a5b.jpg

◎译  名 惩罚者 第一季/漫威制裁者(台)/制裁者
◎片  名 The Punisher Season 1
◎年  代 2017
◎产  地 美国
◎类  别 剧情/动作/犯罪
◎语  言 英语
◎上映日期 2017-11-17(美国)
◎IMDb评分  8.8/10 from 83,931 users
◎豆瓣评分 8.6/10 from 9,152 users
◎集  数 13
◎片  长 50分钟
◎导  演 安迪·戈达德 Andy Goddard / 汤姆·森兰 Tom Shankland / 安东尼奥·坎波斯 Antonio Campos / 凯文·霍克斯 Kevin Hooks / 马克·乔博斯特 Marc Jobst / 吉姆·奥汉龙 Jim O'Hanlon / 卡莉·斯考格兰德 Kari Skogland / 史蒂芬·瑟吉克 Stephen Surjik / 迪尔巴拉·沃尔什 Dearbhla Walsh / 杰里米·韦布 Jeremy Webb / Jet Wilkinson
◎主  演 乔·博恩瑟 Jon Bernthal
      艾波·罗丝·雷瓦 Amber Rose Revah
      艾邦·摩斯-巴克拉赫 Ebon Moss-Bachrach
      本·巴恩斯 Ben Barnes
      杰米·雷·纽曼 Jaime Ray Newman
      科比·弗鲁默 Kobi Frumer
      黛博拉·安沃尔 Deborah Ann Woll
      保罗·舒尔茨 Paul Schulze
      迈克尔·内森森 Michael Nathanson
      利普丽·索博 Ripley Sobo
      丹尼尔·韦伯 Daniel Webber
      杰森·R·摩尔 Jason R. Moore
      凯莉·巴雷特 Kelli Barrett
      托尼·普拉纳 Tony Plana

◎简  介

  《惩罚者》(Marvel's The Punisher,或简称:The Punisher)是漫威电视联合ABC电视台为NetFlix打造的真人超级英雄剧集,改编自漫威同名漫画,是漫威电影宇宙的一部分,也是《超胆侠》的衍生剧,由安迪·戈达德等人执导,乔·博恩瑟、本·巴恩斯、爱波·莫斯-巴克拉赫、艾波·罗丝·雷瓦等主演。
  讲述卡斯特成为“惩罚者”前是美国海军陆战队的战术狙击手,后因家人被残忍杀害而开始以暴制暴、对抗黑暗势力。

◎获奖情况

  第4届豆瓣电影年度榜单  (2017)
  评分最高的英美剧(新剧)(提名)


Video
ID : 1
Format : HEVC
Format/Info : High Efficiency Video Coding
Commercial name : HDR10
Format profile : Main [email protected]@Main
Codec ID : V_MPEGH/ISO/HEVC
Duration : 56 min 18 s
Bit rate : 32.8 Mb/s
Width : 3 840 pixels
Height : 2 160 pixels
Display aspect ratio : 16:9
Frame rate mode : Constant
Frame rate : 23.976 (24000/1001) FPS
Color space : YUV
Chroma subsampling : 4:2:0
Bit depth : 10 bits
Bits/(Pixel*Frame) : 0.165
Stream size : 12.9 GiB (99%)
Writing library : x265 2.6 27-2f3c4158cf35:[Windows][GCC 6.3.0][64 bit] 10bit
Encoding settings : cpuid=1173503 / frame-threads=4 / numa-pools=0,28 / wpp / no-pmode / no-pme / no-psnr / no-ssim / log-level=2 / input-csp=1 / input-res=3840x2160 / interlace=0 / total-frames=81012 / level-idc=0 / high-tier=1 / uhd-bd=0 / ref=5 / no-allow-non-conformance / repeat-headers / annexb / no-aud / no-hrd / info / hash=0 / no-temporal-layers / open-gop / min-keyint=23 / keyint=250 / gop-lookahead=0 / bframes=8 / b-adapt=2 / b-pyramid / bframe-bias=0 / rc-lookahead=40 / lookahead-slices=0 / scenecut=40 / radl=0 / no-intra-refresh / ctu=64 / min-cu-size=8 / rect / amp / max-tu-size=32 / tu-inter-depth=3 / tu-intra-depth=3 / limit-tu=4 / rdoq-level=2 / dynamic-rd=0.00 / no-ssim-rd / signhide / no-tskip / nr-intra=0 / nr-inter=0 / no-constrained-intra / strong-intra-smoothing / max-merge=4 / limit-refs=1 / limit-modes / me=3 / subme=5 / merange=57 / temporal-mvp / weightp / weightb / no-analyze-src-pics / deblock=-3:-3 / sao / no-sao-non-deblock / rd=6 / no-early-skip / rskip / no-fast-intra / no-tskip-fast / no-cu-lossless / b-intra / no-splitrd-skip / rdpenalty=0 / psy-rd=2.00 / psy-rdoq=1.00 / no-rd-refine / no-lossless / cbqpoffs=0 / crqpoffs=0 / rc=crf / crf=18.0 / qcomp=0.80 / qpstep=4 / stats-write=0 / stats-read=0 / ipratio=1.40 / pbratio=1.30 / aq-mode=3 / aq-strength=1.00 / cutree / zone-count=0 / no-strict-cbr / qg-size=16 / no-rc-grain / qpmax=69 / qpmin=0 / no-const-vbv / sar=0 / overscan=0 / videoformat=5 / range=0 / colorprim=9 / transfer=16 / colormatrix=9 / chromaloc=0 / display-window=0 / master-display=G(13250,34500)B(7500,3000)R(34000,16000)WP(15635,16450)L(40000000,50) / max-cll=10000,8801 / min-luma=0 / max-luma=1023 / log2-max-poc-lsb=8 / vui-timing-info / vui-hrd-info / slices=1 / no-opt-qp-pps / no-opt-ref-list-length-pps / no-multi-pass-opt-rps / scenecut-bias=0.05 / no-opt-cu-delta-qp / no-aq-motion / hdr / hdr-opt / no-dhdr10-opt / analysis-save=(null) / analysis-load=(null) / analysis-reuse-level=5 / scale-factor=0 / refine-intra=0 / refine-inter=0 / refine-mv=0 / no-limit-sao / ctu-info=0 / no-lowpass-dct / refine-mv-type=0 / copy-pic=1
Default : Yes
Forced : No
Color range : Limited
Color primaries : BT.2020
Transfer characteristics : PQ
Matrix coefficients : BT.2020 non-constant
Mastering display color primaries : Display P3
Mastering display luminance : min: 0.0050 cd/m2, max: 4000 cd/m2
Maximum Content Light Level : 10000 cd/m2
Maximum Frame-Average Light Level : 8801 cd/m2

Audio
ID : 2
Format : E-AC-3
Format/Info : Enhanced Audio Coding 3
Format profile : E-AC-3+Atmos / E-AC-3
Codec ID : A_EAC3
Duration : 56 min 22 s
Bit rate mode : Constant
Bit rate : 448 kb/s
Channel(s) : 15 objects / 6 channels
Channel positions : 15 objects / Front: L C R, Side: L R, LFE
Sampling rate : 48.0 kHz
Frame rate : 187.500 FPS (256 SPF)
Compression mode : Lossy
Stream size : 181 MiB (1%)
Language : English
Service kind : Complete Main
Default : Yes
Forced : No

Text #1
ID : 3
Format : UTF-8
Codec ID : S_TEXT/UTF8
Codec ID/Info : UTF-8 Plain Text
Duration : 54 min 38 s
Bit rate : 60 b/s
Count of elements : 667
Stream size : 24.4 KiB (0%)
Language : English
Default : No
Forced : No

Text #2
ID : 4
Format : UTF-8
Codec ID : S_TEXT/UTF8
Codec ID/Info : UTF-8 Plain Text
Duration : 54 min 39 s
Bit rate : 68 b/s
Count of elements : 755
Stream size : 27.6 KiB (0%)
Title : SDH
Language : English
Default : Yes
Forced : No

Text #3
ID : 5
Format : UTF-8
Codec ID : S_TEXT/UTF8
Codec ID/Info : UTF-8 Plain Text
Duration : 54 min 38 s
Bit rate : 98 b/s
Count of elements : 616
Stream size : 39.3 KiB (0%)
Language : Arabic
Default : No
Forced : No

Text #4
ID : 6
Format : UTF-8
Codec ID : S_TEXT/UTF8
Codec ID/Info : UTF-8 Plain Text
Duration : 54 min 34 s
Bit rate : 89 b/s
Count of elements : 664
Stream size : 35.8 KiB (0%)
Language : Bulgarian
Default : No
Forced : No

Text #5
ID : 7
Format : UTF-8
Codec ID : S_TEXT/UTF8
Codec ID/Info : UTF-8 Plain Text
Duration : 53 min 57 s
Bit rate : 53 b/s
Count of elements : 582
Stream size : 21.2 KiB (0%)
Language : Danish
Default : No
Forced : No

Text #6
ID : 8
Format : UTF-8
Codec ID : S_TEXT/UTF8
Codec ID/Info : UTF-8 Plain Text
Duration : 54 min 34 s
Bit rate : 56 b/s
Count of elements : 572
Stream size : 22.8 KiB (0%)
Language : German
Default : No
Forced : No

Text #7
ID : 9
Format : UTF-8
Codec ID : S_TEXT/UTF8
Codec ID/Info : UTF-8 Plain Text
Duration : 54 min 38 s
Bit rate : 97 b/s
Count of elements : 607
Stream size : 38.9 KiB (0%)
Language : Greek
Default : No
Forced : No

Text #8
ID : 10
Format : UTF-8
Codec ID : S_TEXT/UTF8
Codec ID/Info : UTF-8 Plain Text
Duration : 54 min 38 s
Bit rate : 52 b/s
Count of elements : 610
Stream size : 20.8 KiB (0%)
Language : Spanish
Default : No
Forced : No

Text #9
ID : 11
Format : UTF-8
Codec ID : S_TEXT/UTF8
Codec ID/Info : UTF-8 Plain Text
Duration : 54 min 38 s
Bit rate : 55 b/s
Count of elements : 611
Stream size : 22.1 KiB (0%)
Title : European
Language : Spanish
Default : No
Forced : No

Text #10
ID : 12
Format : UTF-8
Codec ID : S_TEXT/UTF8
Codec ID/Info : UTF-8 Plain Text
Duration : 53 min 57 s
Bit rate : 50 b/s
Count of elements : 523
Stream size : 20.1 KiB (0%)
Language : Finnish
Default : No
Forced : No

Text #11
ID : 13
Format : UTF-8
Codec ID : S_TEXT/UTF8
Codec ID/Info : UTF-8 Plain Text
Duration : 54 min 38 s
Bit rate : 55 b/s
Count of elements : 595
Stream size : 22.4 KiB (0%)
Language : French
Default : No
Forced : No

Text #12
ID : 14
Format : UTF-8
Codec ID : S_TEXT/UTF8
Codec ID/Info : UTF-8 Plain Text
Duration : 54 min 34 s
Bit rate : 95 b/s
Count of elements : 607
Stream size : 38.1 KiB (0%)
Language : Hebrew
Default : No
Forced : No

Text #13
ID : 15
Format : UTF-8
Codec ID : S_TEXT/UTF8
Codec ID/Info : UTF-8 Plain Text
Duration : 54 min 34 s
Bit rate : 58 b/s
Count of elements : 659
Stream size : 23.5 KiB (0%)
Language : Indonesian
Default : No
Forced : No

Text #14
ID : 16
Format : UTF-8
Codec ID : S_TEXT/UTF8
Codec ID/Info : UTF-8 Plain Text
Duration : 54 min 34 s
Bit rate : 53 b/s
Count of elements : 590
Stream size : 21.4 KiB (0%)
Language : Italian
Default : No
Forced : No

Text #15
ID : 17
Format : UTF-8
Codec ID : S_TEXT/UTF8
Codec ID/Info : UTF-8 Plain Text
Duration : 54 min 37 s
Bit rate : 42 b/s
Count of elements : 604
Stream size : 17.1 KiB (0%)
Language : Japanese
Default : No
Forced : No

Text #16
ID : 18
Format : UTF-8
Codec ID : S_TEXT/UTF8
Codec ID/Info : UTF-8 Plain Text
Duration : 54 min 38 s
Bit rate : 57 b/s
Count of elements : 619
Stream size : 23.2 KiB (0%)
Language : Korean
Default : No
Forced : No

Text #17
ID : 19
Format : UTF-8
Codec ID : S_TEXT/UTF8
Codec ID/Info : UTF-8 Plain Text
Duration : 54 min 38 s
Bit rate : 52 b/s
Count of elements : 593
Stream size : 20.9 KiB (0%)
Language : Norwegian Bokmal
Default : No
Forced : No

Text #18
ID : 20
Format : UTF-8
Codec ID : S_TEXT/UTF8
Codec ID/Info : UTF-8 Plain Text
Duration : 53 min 57 s
Bit rate : 49 b/s
Count of elements : 496
Stream size : 19.5 KiB (0%)
Language : Dutch
Default : No
Forced : No

Text #19
ID : 21
Format : UTF-8
Codec ID : S_TEXT/UTF8
Codec ID/Info : UTF-8 Plain Text
Duration : 54 min 38 s
Bit rate : 49 b/s
Count of elements : 595
Stream size : 19.9 KiB (0%)
Language : Polish
Default : No
Forced : No

Text #20
ID : 22
Format : UTF-8
Codec ID : S_TEXT/UTF8
Codec ID/Info : UTF-8 Plain Text
Duration : 54 min 38 s
Bit rate : 54 b/s
Count of elements : 606
Stream size : 21.9 KiB (0%)
Language : Portuguese
Default : No
Forced : No

Text #21
ID : 23
Format : UTF-8
Codec ID : S_TEXT/UTF8
Codec ID/Info : UTF-8 Plain Text
Duration : 54 min 38 s
Bit rate : 53 b/s
Count of elements : 619
Stream size : 21.4 KiB (0%)
Title : Brazilian
Language : Portuguese
Default : No
Forced : No

Text #22
ID : 24
Format : UTF-8
Codec ID : S_TEXT/UTF8
Codec ID/Info : UTF-8 Plain Text
Duration : 54 min 37 s
Bit rate : 52 b/s
Count of elements : 610
Stream size : 21.0 KiB (0%)
Language : Romanian
Default : No
Forced : No

Text #23
ID : 25
Format : UTF-8
Codec ID : S_TEXT/UTF8
Codec ID/Info : UTF-8 Plain Text
Duration : 54 min 38 s
Bit rate : 53 b/s
Count of elements : 593
Stream size : 21.2 KiB (0%)
Language : Swedish
Default : No
Forced : No

Text #24
ID : 26
Format : UTF-8
Codec ID : S_TEXT/UTF8
Codec ID/Info : UTF-8 Plain Text
Duration : 54 min 38 s
Bit rate : 130 b/s
Count of elements : 614
Stream size : 52.0 KiB (0%)
Language : Thai
Default : No
Forced : No

Text #25
ID : 27
Format : UTF-8
Codec ID : S_TEXT/UTF8
Codec ID/Info : UTF-8 Plain Text
Duration : 54 min 38 s
Bit rate : 56 b/s
Count of elements : 610
Stream size : 22.5 KiB (0%)
Language : Turkish
Default : No
Forced : No

Text #26
ID : 28
Format : UTF-8
Codec ID : S_TEXT/UTF8
Codec ID/Info : UTF-8 Plain Text
Duration : 54 min 38 s
Bit rate : 70 b/s
Count of elements : 615
Stream size : 28.1 KiB (0%)
Language : Vietnamese
Default : No
Forced : No

Text #27
ID : 29
Format : UTF-8
Codec ID : S_TEXT/UTF8
Codec ID/Info : UTF-8 Plain Text
Duration : 54 min 38 s
Bit rate : 49 b/s
Count of elements : 614
Stream size : 19.7 KiB (0%)
Title : Simplified
Language : Chinese
Default : No
Forced : No

Text #28
ID : 30
Format : UTF-8
Codec ID : S_TEXT/UTF8
Codec ID/Info : UTF-8 Plain Text
Duration : 54 min 38 s
Bit rate : 48 b/s
Count of elements : 613
Stream size : 19.4 KiB (0%)
Title : Traditional
Language : Chinese
Default : No
Forced : No






游客,如果您要查看本帖隐藏内容请回复

相关第二季下载
[制裁者/惩罚者] [4K-高清][第二季/全13集打包/英语中字]
http://www.4kjia.com/thread-19818-1-1.html
(出处: 4K家园)



上一篇:卢克·凯奇/神力侠 [第一季/全13集 4K下载打包][英语中字]
下一篇:永远/白头偕老 [第一季/全08集 4K下载打包][英语英字]
推荐使用BitTorrent、qBittorrent、μTorrent、比特精灵、迅雷5.8软件下载
回复

使用道具 举报

0

主题

797

帖子

2223

积分

中级会员

Rank: 4

积分
2223
发表于 2018-9-24 11:40:42 | 显示全部楼层
为保住菊花,这个一定得回复!
回复 支持 反对

使用道具 举报

0

主题

20

帖子

485

积分

4K家园VIP

Rank: 9Rank: 9Rank: 9

积分
485
发表于 2018-9-24 23:12:30 | 显示全部楼层
真是太好了
回复 支持 反对

使用道具 举报

0

主题

3

帖子

26

积分

新手上路

Rank: 1

积分
26
发表于 2018-9-24 23:32:59 | 显示全部楼层
66666666666666666666666666
回复 支持 反对

使用道具 举报

23

主题

1054

帖子

2898

积分

4K家园VIP

Rank: 9Rank: 9Rank: 9

积分
2898
发表于 2018-9-25 05:52:34 | 显示全部楼层
好像还可以
回复 支持 反对

使用道具 举报

0

主题

13

帖子

470

积分

4K家园VIP

Rank: 9Rank: 9Rank: 9

积分
470
发表于 2018-9-26 16:00:48 | 显示全部楼层
下来看看
回复

使用道具 举报

0

主题

2

帖子

19

积分

新手上路

Rank: 1

积分
19
发表于 2018-9-26 21:28:27 | 显示全部楼层
111111111111
回复 支持 反对

使用道具 举报

0

主题

833

帖子

2511

积分

4K家园VIP

Rank: 9Rank: 9Rank: 9

积分
2511
发表于 2018-9-27 18:46:59 | 显示全部楼层
前排支持下了哦~
回复 支持 反对

使用道具 举报

20

主题

939

帖子

2599

积分

4K家园VIP

Rank: 9Rank: 9Rank: 9

积分
2599
发表于 2018-10-3 18:06:51 | 显示全部楼层
有4K版卡,下个看下
回复 支持 反对

使用道具 举报

0

主题

853

帖子

2571

积分

4K家园VIP

Rank: 9Rank: 9Rank: 9

积分
2571
发表于 2018-10-4 20:07:40 | 显示全部楼层
是爷们的娘们的都帮顶!大力支持
回复 支持 反对

使用道具 举报

您需要登录后才可以回帖 登录 | 立即注册

本版积分规则

精彩图文
关闭

站长推荐上一条 /2 下一条

4k家园   ©2015-2019