[4K电影] 欢乐无限:任与史汀比的故事 (2020) 4K高清版本下载/9.14GB

[复制链接]

956

主题

1017

帖子

8614

积分

超级版主

Rank: 8Rank: 8

积分
8614
 楼主| 发表于 2021-8-24 11:12:58 | 显示全部楼层 |阅读模式
QQ图片20210824111123_副本_meitu_5.jpg

◎译  名 欢乐无限:任与史汀比的故事
◎片  名 Happy Happy Joy Joy the Ren & Stimpy Story
◎年  代 2020
◎产  地 美国
◎类  别 动画 / 纪录片
◎语  言 英语
◎上映日期 2020-01-28(圣丹斯电影节)
◎IMDb评分 7.2/10 from 98 users
◎IMDb链接 https://www.imdb.com/title/tt6539750/
◎豆瓣评分 /10 from 0 users
◎豆瓣链接 https://movie.douban.com/subject/27093766/
◎主  演 比利·吉布斯 Billy Gibbons
        文森特·沃勒 Vincent Waller
        肖恩·帕特森 Shawn Patterson

◎简  介

  90年代初,动画片《Ren & Stimpy》打破有线收视纪录,对那一代粉丝和艺术家来说也是试金石……
Video
ID : 1
Format : HEVC
Format/Info : High Efficiency Video Coding
Format profile : Main 10@L5@High
Codec ID : V_MPEGH/ISO/HEVC
Duration : 1 h 45 min
Bit rate : 12.0 Mb/s
Width : 3 836 pixels
Height : 2 156 pixels
Display aspect ratio : 16:9
Frame rate mode : Constant
Frame rate : 23.976 FPS
Color space : YUV
Chroma subsampling : 4:2:0
Bit depth : 10 bits
Bits/(Pixel*Frame) : 0.061
Stream size : 8.86 GiB (97%)
Language : English
Default : Yes
Forced : No
Color range : Limited
Color primaries : BT.709
Transfer characteristics : BT.709
Matrix coefficients : BT.709

Audio
ID : 2
Format : AC-3
Format/Info : Audio Coding 3
Commercial name : Dolby Digital
Codec ID : A_AC3
Duration : 1 h 45 min
Bit rate mode : Constant
Bit rate : 384 kb/s
Channel(s) : 6 channels
Channel layout : L R C LFE Ls Rs
Sampling rate : 48.0 kHz
Frame rate : 31.250 FPS (1536 SPF)
Compression mode : Lossy
Stream size : 290 MiB (3%)
Language : English
Service kind : Complete Main
Default : Yes
Forced : No

Text #1
ID : 3
Format : UTF-8
Codec ID : S_TEXT/UTF8
Codec ID/Info : UTF-8 Plain Text
Duration : 1 h 41 min
Bit rate : 98 b/s
Count of elements : 1434
Stream size : 73.1 KiB (0%)
Title : (SDH)
Language : English
Default : No
Forced : No

Text #2
ID : 4
Format : UTF-8
Codec ID : S_TEXT/UTF8
Codec ID/Info : UTF-8 Plain Text
Duration : 8 min 41 s
Bit rate : 3 b/s
Count of elements : 6
Stream size : 221 Bytes (0%)
Language : English
Default : Yes
Forced : Yes

迅雷下载资源速度为零,资源敏感和谐时,推荐使用qBittorrent等下载软件,有条件的推荐115更好的下载软件!

下载地址:

游客,如果您要查看本帖隐藏内容请回复





上一篇:复仇女孩 / Girl (2020) 4K高清版本下载/7.81GB
下一篇:这里有一段时间 / Here Awhile (2019) 4K高清版本下载/7.05GB
回复

使用道具 举报

59

主题

1430

帖子

4144

积分

4K家园VIP

Rank: 9Rank: 9Rank: 9

积分
4144
发表于 2021-8-24 11:13:03 | 显示全部楼层
试试看吧
回复 支持 反对

使用道具 举报

52

主题

1425

帖子

4105

积分

4K家园VIP

Rank: 9Rank: 9Rank: 9

积分
4105
发表于 2021-8-28 20:13:29 | 显示全部楼层
有4K版卡,下个看下
回复 支持 反对

使用道具 举报

3

主题

1275

帖子

3843

积分

4K家园VIP

Rank: 9Rank: 9Rank: 9

积分
3843
发表于 2021-8-29 21:21:53 来自手机 | 显示全部楼层
为了三千积分!
回复 支持 反对

使用道具 举报

1

主题

1297

帖子

3907

积分

4K家园VIP

Rank: 9Rank: 9Rank: 9

积分
3907
发表于 2021-9-6 17:31:38 | 显示全部楼层
OMG!介是啥东东!!!
回复 支持 反对

使用道具 举报

1

主题

1365

帖子

3943

积分

4K家园VIP

Rank: 9Rank: 9Rank: 9

积分
3943
发表于 2021-9-8 15:21:32 | 显示全部楼层
你们要是有4K资源记得分享,别小气
回复 支持 反对

使用道具 举报

您需要登录后才可以回帖 登录 | 立即注册

本版积分规则

精彩图文
Archiver|手机版|TAG|Sitemap|新帖|专题|联系我们:邮箱: 4kjia.com@gmail.com   

4k家园   ©2019