[4K电影] 误闯杀机 / Killbird (2019) 4K高清版本下载/7.32GB

[复制链接]

868

主题

923

帖子

7905

积分

超级版主

Rank: 8Rank: 8

积分
7905
 楼主| 发表于 2021-8-24 11:42:39 | 显示全部楼层 |阅读模式
QQ图片20210824113935_副本_meitu_7.jpg

◎译  名 误闯杀机/Kill Bird
◎片  名 Killbird
◎年  代 2019
◎产  地 加拿大
◎类  别 惊悚
◎语  言 英语
◎上映日期 2019-06-23(加拿大)
◎IMDb评分  5.2/10 from 1100 users
◎IMDb链接  https://www.imdb.com/title/tt7543908/
◎豆瓣评分 /10 from 0 users
◎豆瓣链接 https://movie.douban.com/subject/35073273/
◎片  长 85分钟
◎主  演 塔莫·潘尼凯 Tahmoh Penikett
        阿伦·道格拉斯 Aaron Douglas
        艾尔西亚·罗塔鲁 Elysia Rotaru
        斯蒂芬·罗波 Stephen Lobo
        赫塞·诺科拉 Jesse Inocalla
        里斯·亚历山大 Reese Alexander


◎简  介

  当一个年轻女子的车在俄勒冈州抛锚时,她发现自己受一个偏执的阴谋理论家的摆布,她以为她是政府特工。
Video
ID : 1
Format : HEVC
Format/Info : High Efficiency Video Coding
Format profile : Main 10@L5@High
Codec ID : V_MPEGH/ISO/HEVC
Duration : 1 h 24 min
Bit rate : 12.0 Mb/s
Width : 3 832 pixels
Height : 2 068 pixels
Display aspect ratio : 1.85:1
Frame rate mode : Constant
Frame rate : 23.976 FPS
Color space : YUV
Chroma subsampling : 4:2:0
Bit depth : 10 bits
Bits/(Pixel*Frame) : 0.063
Stream size : 7.09 GiB (97%)
Language : English
Default : Yes
Forced : No
Color range : Limited
Color primaries : BT.709
Transfer characteristics : BT.709
Matrix coefficients : BT.709

Audio
ID : 2
Format : AC-3
Format/Info : Audio Coding 3
Commercial name : Dolby Digital
Codec ID : A_AC3
Duration : 1 h 24 min
Bit rate mode : Constant
Bit rate : 384 kb/s
Channel(s) : 6 channels
Channel layout : L R C LFE Ls Rs
Sampling rate : 48.0 kHz
Frame rate : 31.250 FPS (1536 SPF)
Compression mode : Lossy
Stream size : 233 MiB (3%)
Language : English
Service kind : Complete Main
Default : Yes
Forced : No

Text
ID : 3
Format : UTF-8
Codec ID : S_TEXT/UTF8
Codec ID/Info : UTF-8 Plain Text
Duration : 1 h 20 min
Bit rate : 60 b/s
Count of elements : 1113
Stream size : 35.4 KiB (0%)
Title : (SDH)
Language : English
Default : No
Forced : No

迅雷下载资源速度为零,资源敏感和谐时,推荐使用qBittorrent等下载软件,有条件的推荐115更好的下载软件!


游客,如果您要查看本帖隐藏内容请回复





上一篇:冰岛是最棒的地方 / Iceland Is Best (2020) 4K高清版本下载/7.85GB
下一篇:马克斯与我 / Max and Me (2020) 4K高清版本下载/15.40GB
回复

使用道具 举报

1

主题

1360

帖子

3896

积分

4K家园VIP

Rank: 9Rank: 9Rank: 9

积分
3896
发表于 2021-8-24 11:42:43 来自手机 | 显示全部楼层
回复 支持 反对

使用道具 举报

3

主题

1265

帖子

3813

积分

4K家园VIP

Rank: 9Rank: 9Rank: 9

积分
3813
发表于 2021-8-29 05:19:22 | 显示全部楼层
不错 支持下
回复 支持 反对

使用道具 举报

1

主题

1274

帖子

3644

积分

4K家园VIP

Rank: 9Rank: 9Rank: 9

积分
3644
发表于 2021-9-4 22:46:14 | 显示全部楼层
这个资源我记得是一套的,楼主还有没有
回复 支持 反对

使用道具 举报

2

主题

1310

帖子

3950

积分

4K家园VIP

Rank: 9Rank: 9Rank: 9

积分
3950
发表于 2021-9-5 02:40:59 来自手机 | 显示全部楼层
啊啊啊啊啊啊啊啊啊啊啊
回复 支持 反对

使用道具 举报

1

主题

1202

帖子

3622

积分

4K家园VIP

Rank: 9Rank: 9Rank: 9

积分
3622
发表于 2021-9-5 03:13:17 来自手机 | 显示全部楼层
回复 支持 反对

使用道具 举报

您需要登录后才可以回帖 登录 | 立即注册

本版积分规则

精彩图文
Archiver|手机版|TAG|Sitemap|新帖|专题|联系我们:邮箱: 4kjia.com@gmail.com   

4k家园   ©2019