[4K电影] 马克斯与我 / Max and Me (2020) 4K高清版本下载/15.40GB

[复制链接]

872

主题

927

帖子

7970

积分

超级版主

Rank: 8Rank: 8

积分
7970
 楼主| 发表于 2021-8-24 11:53:13 | 显示全部楼层 |阅读模式

QQ图片20210824115157_副本_meitu_8.jpg

◎译  名 马克斯与我
◎片  名 Max and Me
◎年  代 2020
◎产  地 美国
◎类  别 剧情 / 爱情
◎语  言 英语
◎上映日期 2020-09-29(美国)
◎豆瓣评分 /10 from 0 users
◎豆瓣链接 https://movie.douban.com/subject/35212203/
◎主  演 马修·埃里克·怀特
                   莉莉·布鲁·安德鲁
                   马修·奥黛特
                   格兰特·安斯汀
                   梅丽莎·庞西奥
                   柳树
                   蒂亚马特扎
                   麦迪逊美
                   泰勒
                   安杰利卡·华盛顿
                   莫莉安·戴维斯
                   马修·麦克法特
                   奥斯汀·布加林
                   杰夫·维森
                   埃尔维拉·特鲁格



◎简  介

  一个成年故事,讲的是一个笨拙的少年爱上了隔壁的女孩,他很快发现女孩在前一年死于囊性纤维化,他爱上了一个鬼。
Video
ID : 1
Format : HEVC
Format/Info : High Efficiency Video Coding
Format profile : Main 10@L5@High
Codec ID : V_MPEGH/ISO/HEVC
Duration : 1 h 43 min
Bit rate : 20.8 Mb/s
Width : 3 838 pixels
Height : 1 606 pixels
Display aspect ratio : 2.40:1
Frame rate mode : Constant
Frame rate : 23.976 FPS
Color space : YUV
Chroma subsampling : 4:2:0
Bit depth : 10 bits
Bits/(Pixel*Frame) : 0.141
Stream size : 15.1 GiB (98%)
Language : English
Default : Yes
Forced : No
Color range : Limited
Color primaries : BT.709
Transfer characteristics : BT.709
Matrix coefficients : BT.709

Audio
ID : 2
Format : AC-3
Format/Info : Audio Coding 3
Commercial name : Dolby Digital
Codec ID : A_AC3
Duration : 1 h 43 min
Bit rate mode : Constant
Bit rate : 384 kb/s
Channel(s) : 6 channels
Channel layout : L R C LFE Ls Rs
Sampling rate : 48.0 kHz
Frame rate : 31.250 FPS (1536 SPF)
Compression mode : Lossy
Stream size : 286 MiB (2%)
Language : English
Service kind : Complete Main
Default : Yes
Forced : No

Text
ID : 3
Format : UTF-8
Codec ID : S_TEXT/UTF8
Codec ID/Info : UTF-8 Plain Text
Duration : 1 h 40 min
Bit rate : 71 b/s
Count of elements : 1640
Stream size : 52.3 KiB (0%)
Title : (SDH)
Language : English
Default : No
Forced : No
下载地址


游客,如果您要查看本帖隐藏内容请回复





上一篇:误闯杀机 / Killbird (2019) 4K高清版本下载/7.32GB
下一篇:老年时分 / Senior Moment (2021) 4K高清版本下载/7.97GB
回复

使用道具 举报

56

主题

1479

帖子

4293

积分

4K家园VIP

Rank: 9Rank: 9Rank: 9

积分
4293
发表于 2021-8-24 11:53:21 来自手机 | 显示全部楼层
楼猪辛苦了,支持一下分享好资源
回复 支持 反对

使用道具 举报

26

主题

1164

帖子

3470

积分

4K家园VIP

Rank: 9Rank: 9Rank: 9

积分
3470
发表于 2021-8-24 21:10:34 | 显示全部楼层
鄙视楼下的顶帖没我快,哈哈
回复 支持 反对

使用道具 举报

0

主题

8

帖子

129

积分

新手上路

Rank: 1

积分
129
发表于 2021-8-25 08:50:58 | 显示全部楼层
马克斯与我 / Max and Me (2020)
回复 支持 反对

使用道具 举报

0

主题

138

帖子

843

积分

新手上路

Rank: 1

积分
843
发表于 2021-8-25 16:44:44 | 显示全部楼层
其实我一直觉得楼主的品味不错
回复 支持 反对

使用道具 举报

0

主题

138

帖子

843

积分

新手上路

Rank: 1

积分
843
发表于 2021-8-26 12:21:26 | 显示全部楼层
感谢楼主干货
回复 支持 反对

使用道具 举报

3

主题

1325

帖子

3997

积分

4K家园VIP

Rank: 9Rank: 9Rank: 9

积分
3997
发表于 2021-8-27 08:58:58 | 显示全部楼层
啊啊啊啊啊啊啊啊啊啊啊
回复 支持 反对

使用道具 举报

37

主题

1468

帖子

4182

积分

4K家园VIP

Rank: 9Rank: 9Rank: 9

积分
4182
发表于 2021-8-27 13:20:03 | 显示全部楼层
我也来顶一下..
回复 支持 反对

使用道具 举报

57

主题

1474

帖子

4278

积分

4K家园VIP

Rank: 9Rank: 9Rank: 9

积分
4278
发表于 2021-8-28 06:26:32 | 显示全部楼层
LZ帖子不给力,勉强给回复下吧
回复 支持 反对

使用道具 举报

0

主题

27

帖子

542

积分

新手上路

Rank: 1

积分
542
发表于 2021-8-29 13:46:41 | 显示全部楼层

LZ帖子不给力,勉强给回复下吧
LZ帖子不给力,勉强给回复下吧
LZ帖子不给力,勉强给回复下吧
LZ帖子不给力,勉强给回复下吧
LZ帖子不给力,勉强给回复下吧
回复 支持 反对

使用道具 举报

您需要登录后才可以回帖 登录 | 立即注册

本版积分规则

精彩图文
Archiver|手机版|TAG|Sitemap|新帖|专题|联系我们:邮箱: 4kjia.com@gmail.com   

4k家园   ©2019