[4K电影] 老年时分 / Senior Moment (2021) 4K高清版本下载/7.97GB

[复制链接]

11

主题

1193

帖子

3561

积分

4K家园VIP

Rank: 9Rank: 9Rank: 9

积分
3561
 楼主| 发表于 2021-8-24 12:35:14 | 显示全部楼层 |阅读模式

QQ图片20210824123351_副本_meitu_9.jpg

◎译  名 老年时分
◎片  名 Senior Moment
◎年  代 2021
◎产  地 美国
◎类  别 喜剧 / 爱情
◎语  言 英语
◎上映日期 2021-03-26(美国)
◎豆瓣评分 /10 from 0 users
◎豆瓣链接 https://movie.douban.com/subject/27017569/
◎片  长 92分钟
◎导  演 乔治·塞拉菲尼 Giorgio Serafini
◎主  演 威廉·夏特纳 William Shatner
      克里斯托弗·洛伊德 Christopher Lloyd
      卡特里娜·宝登 Katrina Bowden
      珍·斯马特 Jean Smart
      埃塞·莫拉雷斯 Esai Morales
      茹塔·李 Ruta Lee
      瓦拉里·佩蒂福德 Valarie Pettiford
      唐·麦克马纳斯 Don McManus
      凯·巴拉德 Kaye Ballard
      玛雅·斯托扬 Maya Stojan
      丹妮丝·达巴里 Denise DuBarry
      贝斯·利特福德 Beth Littleford
      乔·艾斯特维兹 Joe Estevez
      Wesley Eure Wesley Eure
      杰克·华莱士 Jack Wallace
      杰克·托帕利安 Jack Topalian



◎简  介

  克里斯托弗·洛伊德搭档威廉·夏特纳,出演乔治·塞拉菲尼([复仇死循环])执导喜剧新片[老年时分](Senior Moment,暂译)。两人在片中饰演一对好友,因在小镇超速驾驶老式敞篷车而发生车祸,故事由此展开。
Video
ID : 1
Format : HEVC
Format/Info : High Efficiency Video Coding
Format profile : Main 10@L5@High
Codec ID : V_MPEGH/ISO/HEVC
Duration : 1 h 32 min
Bit rate : 12.0 Mb/s
Width : 3 832 pixels
Height : 1 620 pixels
Display aspect ratio : 2.35:1
Frame rate mode : Constant
Frame rate : 23.976 FPS
Color space : YUV
Chroma subsampling : 4:2:0
Bit depth : 10 bits
Bits/(Pixel*Frame) : 0.081
Stream size : 7.72 GiB (97%)
Language : English
Default : Yes
Forced : No
Color range : Limited
Color primaries : BT.709
Transfer characteristics : BT.709
Matrix coefficients : BT.709

Audio
ID : 2
Format : AC-3
Format/Info : Audio Coding 3
Commercial name : Dolby Digital
Codec ID : A_AC3
Duration : 1 h 32 min
Bit rate mode : Constant
Bit rate : 384 kb/s
Channel(s) : 6 channels
Channel layout : L R C LFE Ls Rs
Sampling rate : 48.0 kHz
Frame rate : 31.250 FPS (1536 SPF)
Compression mode : Lossy
Stream size : 253 MiB (3%)
Language : English
Service kind : Complete Main
Default : Yes
Forced : No

Text
ID : 3
Format : UTF-8
Codec ID : S_TEXT/UTF8
Codec ID/Info : UTF-8 Plain Text
Duration : 1 h 30 min
Bit rate : 58 b/s
Count of elements : 1504
Stream size : 38.4 KiB (0%)
Title : (SDH)
Language : English
Default : No
Forced : No
下载地址


游客,如果您要查看本帖隐藏内容请回复






上一篇:马克斯与我 / Max and Me (2020) 4K高清版本下载/15.40GB
下一篇:Stars Fell on Alabama (2021) 4K高清版本下载/8.90GB
回复

使用道具 举报

4

主题

1241

帖子

3743

积分

4K家园VIP

Rank: 9Rank: 9Rank: 9

积分
3743
发表于 2021-8-24 12:35:18 | 显示全部楼层
非常好,顶一下
回复 支持 反对

使用道具 举报

0

主题

5

帖子

18

积分

新手上路

Rank: 1

积分
18
发表于 2021-8-24 16:24:30 | 显示全部楼层
谢谢大佬分享
回复 支持 反对

使用道具 举报

64

主题

1474

帖子

4284

积分

4K家园VIP

Rank: 9Rank: 9Rank: 9

积分
4284
发表于 2021-8-25 13:41:36 | 显示全部楼层
传说中的沙发???哇卡卡
回复 支持 反对

使用道具 举报

0

主题

5838

帖子

1万

积分

4K家园VIP

Rank: 9Rank: 9Rank: 9

积分
13910
发表于 2021-8-26 07:53:57 | 显示全部楼层
太好啦&萬分感謝版主的無私發佈分享%
回复 支持 反对

使用道具 举报

0

主题

1514

帖子

4142

积分

4K家园VIP

Rank: 9Rank: 9Rank: 9

积分
4142
发表于 2021-9-8 07:27:52 | 显示全部楼层
我也来顶一下..
回复 支持 反对

使用道具 举报

3

主题

1156

帖子

3480

积分

4K家园VIP

Rank: 9Rank: 9Rank: 9

积分
3480
发表于 前天 20:12 | 显示全部楼层
4K家园资源不错,前排支持
回复 支持 反对

使用道具 举报

0

主题

1558

帖子

4278

积分

4K家园VIP

Rank: 9Rank: 9Rank: 9

积分
4278
发表于 3 小时前 | 显示全部楼层
支持支持再支持
回复 支持 反对

使用道具 举报

您需要登录后才可以回帖 登录 | 立即注册

本版积分规则

精彩图文
Archiver|手机版|TAG|Sitemap|新帖|专题|联系我们:邮箱: 4kjia.com@gmail.com   

4k家园   ©2019