[4K电影] The House in Between (2020) 4K高清版本下载/7.03GB

[复制链接]

61

主题

1422

帖子

4088

积分

4K家园VIP

Rank: 9Rank: 9Rank: 9

积分
4088
 楼主| 发表于 2021-8-24 13:10:16 | 显示全部楼层 |阅读模式

QQ图片20210824130742_副本.png

◎片  名 The House in Between
◎年  代 2020
◎产  地 美国
◎类  别 惊悚 / 恐怖 / 纪录片
◎语  言 英语
◎上映日期 2020-05-05(美国)
◎IMDb评分  4.6/10 from 284 users
◎IMDb链接  https://www.imdb.com/title/tt11568236/
◎豆瓣评分 6.7/10 from 5227 users
◎豆瓣链接 https://movie.douban.com/subject/35216142/
◎片  长 81分钟
◎导  演 史蒂夫·贡萨尔维斯/肯德尔·惠尔顿
◎主  演 艾琳·布朗
                   贾斯汀·布朗
                   艾米·布拉德
        约翰·布拉德
                   杰瑞·伯德
                   布拉德·库尼
                   麒麟·戴
                   迈克尔·丹尼
                   摩根·盖茨
                   史蒂夫·冈萨尔维斯
                   沃尔特·格雷森
                   珍妮特·哈珀
                   玛丽·爱丽丝·海尼克
                   爱丽丝·杰克逊
                   伊琳·琼斯


◎简  介

Video
ID : 1
Format : HEVC
Format/Info : High Efficiency Video Coding
Format profile : Main 10@L5@High
Codec ID : V_MPEGH/ISO/HEVC
Duration : 1 h 20 min
Bit rate : 12.1 Mb/s
Width : 3 838 pixels
Height : 2 020 pixels
Display aspect ratio : 1.900
Frame rate mode : Constant
Frame rate : 23.976 FPS
Color space : YUV
Chroma subsampling : 4:2:0
Bit depth : 10 bits
Bits/(Pixel*Frame) : 0.065
Stream size : 6.81 GiB (97%)
Language : English
Default : Yes
Forced : No
Color range : Limited
Color primaries : BT.709
Transfer characteristics : BT.709
Matrix coefficients : BT.709

Audio
ID : 2
Format : AC-3
Format/Info : Audio Coding 3
Commercial name : Dolby Digital
Codec ID : A_AC3
Duration : 1 h 20 min
Bit rate mode : Constant
Bit rate : 384 kb/s
Channel(s) : 6 channels
Channel layout : L R C LFE Ls Rs
Sampling rate : 48.0 kHz
Frame rate : 31.250 FPS (1536 SPF)
Compression mode : Lossy
Stream size : 222 MiB (3%)
Language : English
Service kind : Complete Main
Default : Yes
Forced : No

Text #1
ID : 3
Format : UTF-8
Codec ID : S_TEXT/UTF8
Codec ID/Info : UTF-8 Plain Text
Duration : 1 h 19 min
Bit rate : 92 b/s
Count of elements : 1368
Stream size : 54.3 KiB (0%)
Title : (SDH)
Language : English
Default : No
Forced : No

Text #2
ID : 4
Format : UTF-8
Codec ID : S_TEXT/UTF8
Codec ID/Info : UTF-8 Plain Text
Duration : 51 min 16 s
Bit rate : 2 b/s
Count of elements : 26
Stream size : 948 Bytes (0%)
Language : English
Default : Yes
Forced : Yes
下载地址:

游客,如果您要查看本帖隐藏内容请回复





上一篇:Stars Fell on Alabama (2021) 4K高清版本下载/8.90GB
下一篇:White Noise (2020) 4K高清版本下载/8.07GB
回复

使用道具 举报

4

主题

1241

帖子

3743

积分

4K家园VIP

Rank: 9Rank: 9Rank: 9

积分
3743
发表于 2021-8-24 13:10:23 | 显示全部楼层
我也来顶一下..
回复 支持 反对

使用道具 举报

0

主题

1631

帖子

4443

积分

4K家园VIP

Rank: 9Rank: 9Rank: 9

积分
4443
发表于 2021-8-25 14:05:08 来自手机 | 显示全部楼层
呵呵。。。
回复 支持 反对

使用道具 举报

46

主题

1377

帖子

3959

积分

4K家园VIP

Rank: 9Rank: 9Rank: 9

积分
3959
发表于 2021-8-26 12:50:14 | 显示全部楼层
呵呵。。。
回复 支持 反对

使用道具 举报

1

主题

1665

帖子

4603

积分

4K家园VIP

Rank: 9Rank: 9Rank: 9

积分
4603
发表于 2021-8-26 21:02:00 | 显示全部楼层
秀起来~
回复 支持 反对

使用道具 举报

3

主题

1317

帖子

3969

积分

4K家园VIP

Rank: 9Rank: 9Rank: 9

积分
3969
发表于 2021-8-27 13:27:00 | 显示全部楼层
路过的帮顶
回复 支持 反对

使用道具 举报

您需要登录后才可以回帖 登录 | 立即注册

本版积分规则

精彩图文
Archiver|手机版|TAG|Sitemap|新帖|专题|联系我们:邮箱: 4kjia.com@gmail.com   

4k家园   ©2019