[4K电影] White Noise (2020) 4K高清版本下载/8.07GB

[复制链接]

870

主题

925

帖子

7945

积分

超级版主

Rank: 8Rank: 8

积分
7945
 楼主| 发表于 2021-8-24 13:39:28 | 显示全部楼层 |阅读模式
QQ图片20210824133433_副本.png

◎片  名 White Noise
◎年  代 2020
◎产  地 美国
◎类  别 喜剧 / 动画
◎语  言 英语
◎上映日期 2020-10-21(美国)
◎IMDb评分  6.2/10 from 589 users
◎IMDb链接  https://www.imdb.com/title/tt12569462/
◎豆瓣评分 0/10 from 0 users
◎豆瓣链接 https://movie.douban.com/subject/35258235/
◎片  长 94分钟
◎导  演 丹尼尔·隆布罗索
◎主  演 艾克·塞诺维奇
                   劳伦·南特
                   理查德·斯宾塞


◎简  介



          2016年11月唐纳德·特朗普当选11天后,电影制片人丹尼尔·隆布罗索开始跟踪特朗普的一些支持者。极右翼活动家理查德·斯宾塞、影响者劳伦·南特和反女权主义者迈克·塞尔诺维奇都在以自己的方式与他们眼中的破坏性社会力量进行斗争。例如,22岁的Southern独自前往意大利阻止难民乘船入境。我们看到她在出租车上拍摄自己,而她的社交媒体上充斥着积极的评论和爱心。当斯宾塞在集会上高呼“为特朗普万岁”时,右臂举起敬礼——吸引了国际新闻的关注。塞尔诺维奇发现,在2017年夏洛茨维尔举行的“致命的团结右翼”集会后,他能发挥多大的影响力。当他随后利用这一创伤性事件重塑自己的运动时,就连他的妻子也开始质疑他的政治信念。在经历了多年的“白噪音”之后,这些积极分子开始意识到他们的行为可能会产生重大后果。他们能应付这种压力吗?

Video
ID : 1
Format : HEVC
Format/Info : High Efficiency Video Coding
Format profile : Main 10@L5@High
Codec ID : V_MPEGH/ISO/HEVC
Duration : 1 h 34 min
Bit rate : 11.9 Mb/s
Width : 3 836 pixels
Height : 2 028 pixels
Display aspect ratio : 1.892
Frame rate mode : Constant
Frame rate : 23.976 FPS
Color space : YUV
Chroma subsampling : 4:2:0
Bit depth : 10 bits
Bits/(Pixel*Frame) : 0.064
Stream size : 7.82 GiB (97%)
Language : English
Default : Yes
Forced : No
Color range : Limited
Color primaries : BT.709
Transfer characteristics : BT.709
Matrix coefficients : BT.709

Audio
ID : 2
Format : AC-3
Format/Info : Audio Coding 3
Commercial name : Dolby Digital
Codec ID : A_AC3
Duration : 1 h 34 min
Bit rate mode : Constant
Bit rate : 384 kb/s
Channel(s) : 6 channels
Channel layout : L R C LFE Ls Rs
Sampling rate : 48.0 kHz
Frame rate : 31.250 FPS (1536 SPF)
Compression mode : Lossy
Stream size : 259 MiB (3%)
Language : English
Service kind : Complete Main
Default : Yes
Forced : No

Text #1
ID : 3
Format : UTF-8
Codec ID : S_TEXT/UTF8
Codec ID/Info : UTF-8 Plain Text
Duration : 1 h 30 min
Bit rate : 83 b/s
Count of elements : 1543
Stream size : 55.5 KiB (0%)
Title : (SDH)
Language : English
Default : No
Forced : No

Text #2
ID : 4
Format : UTF-8
Codec ID : S_TEXT/UTF8
Codec ID/Info : UTF-8 Plain Text
Duration : 1 h 0 min
Bit rate : 1 b/s
Count of elements : 20
Stream size : 785 Bytes (0%)
Language : English
Default : Yes
Forced : Yes

下载地址  

游客,如果您要查看本帖隐藏内容请回复





上一篇:The House in Between (2020) 4K高清版本下载/7.03GB
下一篇:谁是电话?/ Who Was Phone? (2020) 4K高清版本下载/9.15GB
回复

使用道具 举报

1

主题

1409

帖子

4027

积分

4K家园VIP

Rank: 9Rank: 9Rank: 9

积分
4027
发表于 2021-8-24 13:39:35 | 显示全部楼层
看起来不错
回复 支持 反对

使用道具 举报

2

主题

1307

帖子

3739

积分

4K家园VIP

Rank: 9Rank: 9Rank: 9

积分
3739
发表于 2021-8-25 17:50:29 来自手机 | 显示全部楼层
为了三千积分!
回复 支持 反对

使用道具 举报

53

主题

1451

帖子

4221

积分

4K家园VIP

Rank: 9Rank: 9Rank: 9

积分
4221
发表于 2021-8-27 00:52:32 | 显示全部楼层
前排支持下
回复 支持 反对

使用道具 举报

3

主题

1708

帖子

4672

积分

中级会员

Rank: 4

积分
4672
发表于 2021-8-28 07:38:21 | 显示全部楼层
佩服佩服!
回复 支持 反对

使用道具 举报

1

主题

1282

帖子

3692

积分

4K家园VIP

Rank: 9Rank: 9Rank: 9

积分
3692
发表于 2021-8-29 19:36:38 | 显示全部楼层
广告位,,坐下看看
回复 支持 反对

使用道具 举报

您需要登录后才可以回帖 登录 | 立即注册

本版积分规则

精彩图文
Archiver|手机版|TAG|Sitemap|新帖|专题|联系我们:邮箱: 4kjia.com@gmail.com   

4k家园   ©2019