[4K电影] 谁是电话?/ Who Was Phone? (2020) 4K高清版本下载/9.15GB

[复制链接]

48

主题

1458

帖子

4178

积分

4K家园VIP

Rank: 9Rank: 9Rank: 9

积分
4178
 楼主| 发表于 2021-8-24 13:50:35 | 显示全部楼层 |阅读模式
QQ图片20210824134527_副本_meitu_11.jpg

◎译  名 谁是电话?
◎片  名 Who Was Phone?
◎年  代 2020
◎产  地 美国
◎类  别 喜剧 / 恐怖
◎语  言 英语
◎上映日期 2020-10-30(英国)
◎IMDb评分  4.1/10 from 63 users
◎IMDb链接  https://www.imdb.com/title/tt8584048/
◎豆瓣评分 /10 from 0 users
◎豆瓣链接 https://movie.douban.com/subject/35239020/
◎片  长 105分钟


◎简  介

  在她父亲死后的几年里,大学生Fiona Stephens和她的朋友们挣扎着躲避一个蒙面的精神病患者,对他们残忍的谋杀深恶痛绝。
Video
ID : 1
Format : HEVC
Format/Info : High Efficiency Video Coding
Format profile : Main 10@L5@High
Codec ID : V_MPEGH/ISO/HEVC
Duration : 1 h 45 min
Bit rate : 12.0 Mb/s
Width : 3 836 pixels
Height : 1 596 pixels
Display aspect ratio : 2.40:1
Frame rate mode : Constant
Frame rate : 23.976 FPS
Color space : YUV
Chroma subsampling : 4:2:0
Bit depth : 10 bits
Bits/(Pixel*Frame) : 0.082
Stream size : 8.87 GiB (97%)
Language : English
Default : Yes
Forced : No
Color range : Limited
Color primaries : BT.709
Transfer characteristics : BT.709
Matrix coefficients : BT.709

Audio
ID : 2
Format : AC-3
Format/Info : Audio Coding 3
Commercial name : Dolby Digital
Codec ID : A_AC3
Duration : 1 h 45 min
Bit rate mode : Constant
Bit rate : 384 kb/s
Channel(s) : 6 channels
Channel layout : L R C LFE Ls Rs
Sampling rate : 48.0 kHz
Frame rate : 31.250 FPS (1536 SPF)
Compression mode : Lossy
Stream size : 290 MiB (3%)
Language : English
Service kind : Complete Main
Default : Yes
Forced : No

Text
ID : 3
Format : UTF-8
Codec ID : S_TEXT/UTF8
Codec ID/Info : UTF-8 Plain Text
Duration : 1 h 44 min
Bit rate : 45 b/s
Count of elements : 1516
Stream size : 35.1 KiB (0%)
Title : (SDH)
Language : English
Default : No
Forced : No


下载地址

游客,如果您要查看本帖隐藏内容请回复






上一篇:White Noise (2020) 4K高清版本下载/8.07GB
下一篇:幸运日 / Lucky Day (2019) 4K高清版本下载/11.06GB
回复

使用道具 举报

3

主题

1336

帖子

3834

积分

4K家园VIP

Rank: 9Rank: 9Rank: 9

积分
3834
发表于 2021-8-24 13:51:07 | 显示全部楼层
都不知道说的啥
回复 支持 反对

使用道具 举报

0

主题

1298

帖子

3716

积分

4K家园VIP

Rank: 9Rank: 9Rank: 9

积分
3716
发表于 2021-9-5 16:41:49 | 显示全部楼层
珍爱生命,果断回帖。
回复 支持 反对

使用道具 举报

61

主题

1422

帖子

4088

积分

4K家园VIP

Rank: 9Rank: 9Rank: 9

积分
4088
发表于 2021-9-12 08:28:42 | 显示全部楼层
我只是路过,不发表意见
回复 支持 反对

使用道具 举报

47

主题

1457

帖子

4213

积分

4K家园VIP

Rank: 9Rank: 9Rank: 9

积分
4213
发表于 2 小时前 | 显示全部楼层
鄙视楼下的顶帖没我快,哈哈
回复 支持 反对

使用道具 举报

您需要登录后才可以回帖 登录 | 立即注册

本版积分规则

精彩图文
Archiver|手机版|TAG|Sitemap|新帖|专题|联系我们:邮箱: 4kjia.com@gmail.com   

4k家园   ©2019