[4K电影] 幸运日 / Lucky Day (2019) 4K高清版本下载/11.06GB

[复制链接]

868

主题

923

帖子

7905

积分

超级版主

Rank: 8Rank: 8

积分
7905
 楼主| 发表于 2021-8-26 21:24:46 | 显示全部楼层 |阅读模式
本帖最后由 最爱4K哟 于 2021-8-26 22:24 编辑

QQ图片20210826221415_副本.png

◎译  名 幸运日/杀手欢乐送(台)
◎片  名 Lucky Day
◎年  代 2019
◎产  地 法国,加拿大
◎类  别 喜剧 / 动作 / 惊悚 / 犯罪
◎语  言 英语,法语
◎上映日期 2019-09-18(法国)
◎IMDb评分  5.1/10 from 2569 users
◎IMDb链接  https://www.imdb.com/title/tt7248248/
◎豆瓣评分 5.7/10 from 1223 users
◎豆瓣链接 https://movie.douban.com/subject/27150264/
◎片  长 99分钟
◎导  演 罗杰·阿夫瑞 Roger Avary
◎编  剧 罗杰·阿夫瑞 Roger Avary
◎主  演 卢克·布雷西 Luke Bracey
      妮娜·杜波夫 Nina Dobrev
      克里斯平·格洛弗 Crispin Glover
      科勒·班尼特 Clé Bennett
      小克利夫顿·克林斯 Clifton Collins Jr.
      大卫·休莱特 David Hewlett
      娜迪亚·法尔丝 Nadia Farès
      托莫·希思黎 Tomer Sisley
      马克·达卡斯考斯 Mark Dacascos
      罗伯托·坎帕内利亚 Roberto Campanella
      加布里埃尔·格雷厄姆 Gabrielle Graham
      何超仪 Josie Ho
      达林·贝克 Darrin Baker
      博拉·艾伊奥拉 Bola Aiyeola
      塞缪尔·哈迪达 Samuel Hadida
      迈克尔·马德森 Michael Madsen


◎简  介

  故事聚焦一位有前科者,他被克里斯平·格洛弗扮演的变态杀手所追踪。
Video
ID : 1
Format : HEVC
Format/Info : High Efficiency Video Coding
Format profile : Main 10@L5@High
Codec ID : V_MPEGH/ISO/HEVC
Duration : 1 h 39 min
Bit rate : 12.1 Mb/s
Width : 3 828 pixels
Height : 1 588 pixels
Display aspect ratio : 2.40:1
Frame rate mode : Constant
Frame rate : 23.976 FPS
Color space : YUV
Chroma subsampling : 4:2:0
Bit depth : 10 bits
Bits/(Pixel*Frame) : 0.083
Stream size : 8.39 GiB (76%)
Language : English
Default : Yes
Forced : No
Color range : Limited
Color primaries : BT.709
Transfer characteristics : BT.709
Matrix coefficients : BT.709

Audio #1
ID : 2
Format : DTS XLL
Format/Info : Digital Theater Systems
Commercial name : DTS-HD Master Audio
Codec ID : A_DTS
Duration : 1 h 39 min
Bit rate mode : Variable
Bit rate : 3 426 kb/s
Channel(s) : 6 channels
Channel layout : C L R Ls Rs LFE
Sampling rate : 48.0 kHz
Frame rate : 93.750 FPS (512 SPF)
Bit depth : 24 bits
Compression mode : Lossless
Stream size : 2.37 GiB (21%)
Title : DTS-HD MA 5.1
Language : English
Default : Yes
Forced : No

Audio #2
ID : 3
Format : AC-3
Format/Info : Audio Coding 3
Commercial name : Dolby Digital
Codec ID : A_AC3
Duration : 1 h 39 min
Bit rate mode : Constant
Bit rate : 384 kb/s
Channel(s) : 6 channels
Channel layout : L R C LFE Ls Rs
Sampling rate : 48.0 kHz
Frame rate : 31.250 FPS (1536 SPF)
Compression mode : Lossy
Stream size : 273 MiB (2%)
Title : DD 5.1
Language : English
Service kind : Complete Main
Default : No
Forced : No

Text #1
ID : 4
Format : UTF-8
Codec ID : S_TEXT/UTF8
Codec ID/Info : UTF-8 Plain Text
Duration : 52 min 55 s
Bit rate : 5 b/s
Count of elements : 93
Stream size : 2.05 KiB (0%)
Language : English
Default : No
Forced : Yes

Text #2
ID : 5
Format : UTF-8
Codec ID : S_TEXT/UTF8
Codec ID/Info : UTF-8 Plain Text
Duration : 1 h 37 min
Bit rate : 58 b/s
Count of elements : 1323
Stream size : 41.9 KiB (0%)
Title : (SDH)
Language : English
Default : No
Forced : No

Text #3
ID : 6
Format : PGS
Muxing mode : zlib
Codec ID : S_HDMV/PGS
Codec ID/Info : Picture based subtitle format used on BDs/HD-DVDs
Duration : 1 h 37 min
Bit rate : 40.0 kb/s
Count of elements : 2925
Stream size : 27.8 MiB (0%)
Title : English (SDH)
Language : English
Default : No
Forced : No

Text #4
ID : 7
Format : PGS
Muxing mode : zlib
Codec ID : S_HDMV/PGS
Codec ID/Info : Picture based subtitle format used on BDs/HD-DVDs
Duration : 1 h 37 min
Bit rate : 31.2 kb/s
Count of elements : 2774
Stream size : 21.7 MiB (0%)
Title : Spanish (Latin American)
Language : Spanish
Default : No
Forced : No

Menu
00:00:00.000 : Chapter 01
00:06:02.070 : Chapter 02
00:10:49.649 : Chapter 03
00:18:16.846 : Chapter 04
00:23:41.837 : Chapter 05
00:30:44.551 : Chapter 06
00:37:38.131 : Chapter 07
00:43:59.554 : Chapter 08
00:48:35.412 : Chapter 09
00:53:35.337 : Chapter 10
01:00:05.519 : Chapter 11
01:07:10.443 : Chapter 12
01:11:08.222 : Chapter 13
01:17:25.140 : Chapter 14
01:24:48.583 : Chapter 15
01:29:50.594 : Chapter 16



下载地址

游客,如果您要查看本帖隐藏内容请回复





上一篇:谁是电话?/ Who Was Phone? (2020) 4K高清版本下载/9.15GB
下一篇:马丁·路德·金与联邦调查局 (2020) 4K高清版本下载/10.41GB
回复

使用道具 举报

46

主题

1410

帖子

4044

积分

4K家园VIP

Rank: 9Rank: 9Rank: 9

积分
4044
发表于 2021-8-26 21:24:51 | 显示全部楼层
楼主呀,,,您太有才了。。。
回复 支持 反对

使用道具 举报

4

主题

1241

帖子

3743

积分

4K家园VIP

Rank: 9Rank: 9Rank: 9

积分
3743
发表于 2021-8-26 21:24:51 | 显示全部楼层
没人回帖。。。我来个吧
回复 支持 反对

使用道具 举报

56

主题

1478

帖子

4290

积分

4K家园VIP

Rank: 9Rank: 9Rank: 9

积分
4290
发表于 2021-8-27 03:10:30 | 显示全部楼层
小白一个 顶一下
回复 支持 反对

使用道具 举报

3

主题

1281

帖子

3863

积分

4K家园VIP

Rank: 9Rank: 9Rank: 9

积分
3863
发表于 2021-8-27 23:59:57 | 显示全部楼层
占坑编辑ing
回复 支持 反对

使用道具 举报

55

主题

1399

帖子

4073

积分

4K家园VIP

Rank: 9Rank: 9Rank: 9

积分
4073
发表于 2021-8-28 20:58:38 | 显示全部楼层
多发些资源啊
回复 支持 反对

使用道具 举报

您需要登录后才可以回帖 登录 | 立即注册

本版积分规则

精彩图文
Archiver|手机版|TAG|Sitemap|新帖|专题|联系我们:邮箱: 4kjia.com@gmail.com   

4k家园   ©2019