[4K电影] 马丁·路德·金与联邦调查局 (2020) 4K高清版本下载/10.41GB

[复制链接]

26

主题

1163

帖子

3467

积分

4K家园VIP

Rank: 9Rank: 9Rank: 9

积分
3467
 楼主| 发表于 2021-8-26 21:35:02 | 显示全部楼层 |阅读模式
本帖最后由 最爱4K哟 于 2021-8-26 22:34 编辑

QQ图片20210826223346.png

◎译  名 马丁·路德·金与联邦调查局
◎片  名 MLK/FBI
◎年  代 2020
◎产  地 美国
◎类  别 纪录片
◎语  言 英语
◎上映日期 2020-09-15(多伦多电影节)
◎IMDb评分 6.9/10 from 574 users
◎IMDb链接 https://www.imdb.com/title/tt12801356/
◎豆瓣评分 /10 from 0 users
◎豆瓣链接 https://movie.douban.com/subject/35162173/
◎片  长 104分钟
◎主  演 马丁·路德·金
                   J.埃德加·胡佛、
                   大卫·加罗
                   克拉伦斯·B·琼斯
                   查尔斯·诺克斯
                   唐娜·默奇
                   马克·佩鲁斯基
                   安德鲁·杨
                   詹姆斯·科米、
                   贝弗利·盖奇
                   H.拉普·布朗
                   亚瑟·戈德堡
                   梅尔夫·格里芬
                   林登·B·约翰逊
                   肯尼思·基廷
                   约翰·F·肯尼迪
                   罗伯特·F·肯尼迪
                   科雷塔·斯科特·金
                   斯坦利·莱维森
                   盖伊·保利g


◎简  介

  基于新解密的文件,山姆波拉德的共鸣电影探讨了美国政府对小马丁路德金的监视和骚扰。

◎获奖情况

  第45届多伦多国际电影节 ?(2020)
  观众选择奖纪录片单元(提名)

  第25届金卫星奖 ?(2021)
  电影部门最佳纪录片(提名)

Video
ID : 1
Format : HEVC
Format/Info : High Efficiency Video Coding
Format profile : Main 10@L5@High
Codec ID : V_MPEGH/ISO/HEVC
Duration : 1 h 46 min
Bit rate : 11.8 Mb/s
Width : 3 840 pixels
Height : 2 012 pixels
Display aspect ratio : 1.909
Frame rate mode : Constant
Frame rate : 23.976 FPS
Color space : YUV
Chroma subsampling : 4:2:0
Bit depth : 10 bits
Bits/(Pixel*Frame) : 0.064
Stream size : 8.75 GiB (84%)
Language : English
Default : Yes
Forced : No
Color range : Limited
Color primaries : BT.709
Transfer characteristics : BT.709
Matrix coefficients : BT.709

Audio #1
ID : 2
Format : DTS XLL
Format/Info : Digital Theater Systems
Commercial name : DTS-HD Master Audio
Codec ID : A_DTS
Duration : 1 h 46 min
Bit rate mode : Variable
Bit rate : 1 846 kb/s
Channel(s) : 6 channels
Channel layout : C L R Ls Rs LFE
Sampling rate : 48.0 kHz
Frame rate : 93.750 FPS (512 SPF)
Bit depth : 16 bits
Compression mode : Lossless
Delay relative to video : 2 ms
Stream size : 1.37 GiB (13%)
Title : DTS-HD MA 5.1
Language : English
Default : Yes
Forced : No

Audio #2
ID : 3
Format : AC-3
Format/Info : Audio Coding 3
Commercial name : Dolby Digital
Codec ID : A_AC3
Duration : 1 h 46 min
Bit rate mode : Constant
Bit rate : 384 kb/s
Channel(s) : 6 channels
Channel layout : L R C LFE Ls Rs
Sampling rate : 48.0 kHz
Frame rate : 31.250 FPS (1536 SPF)
Compression mode : Lossy
Stream size : 291 MiB (3%)
Title : DD 5.1
Language : English
Service kind : Complete Main
Default : No
Forced : No

Text
ID : 4
Format : UTF-8
Codec ID : S_TEXT/UTF8
Codec ID/Info : UTF-8 Plain Text
Duration : 1 h 42 min
Bit rate : 88 b/s
Count of elements : 1776
Stream size : 66.4 KiB (0%)
Title : (SDH)
Language : English
Default : Yes
Forced : No

Menu
00:00:00.000 : Chapter 01
00:06:12.747 : Chapter 02
00:14:31.579 : Chapter 03
00:20:46.745 : Chapter 04
00:31:26.093 : Chapter 05
00:42:49.776 : Chapter 06
00:55:15.687 : Chapter 07
01:05:04.234 : Chapter 08
01:13:36.495 : Chapter 09
01:24:13.966 : Chapter 10
01:31:01.956 : Chapter 11
01:37:42.023 : Chapter 12

下载地址

游客,如果您要查看本帖隐藏内容请回复





上一篇:幸运日 / Lucky Day (2019) 4K高清版本下载/11.06GB
下一篇:车速过快 / Spree (2020) 4K高清版本下载/14.73GB
回复

使用道具 举报

64

主题

1474

帖子

4284

积分

4K家园VIP

Rank: 9Rank: 9Rank: 9

积分
4284
发表于 2021-8-26 21:35:07 | 显示全部楼层
纯粹路过,没任何兴趣,仅仅是看在老用户份上回复一下
回复 支持 反对

使用道具 举报

1

主题

1324

帖子

3994

积分

4K家园VIP

Rank: 9Rank: 9Rank: 9

积分
3994
发表于 2021-8-28 01:48:22 | 显示全部楼层
感谢分享
回复 支持 反对

使用道具 举报

1

主题

1316

帖子

3800

积分

4K家园VIP

Rank: 9Rank: 9Rank: 9

积分
3800
发表于 2021-8-28 11:58:51 | 显示全部楼层
我了个去,顶了
回复 支持 反对

使用道具 举报

0

主题

1298

帖子

3716

积分

4K家园VIP

Rank: 9Rank: 9Rank: 9

积分
3716
发表于 2021-8-30 13:54:13 | 显示全部楼层
为了三千积分!
回复 支持 反对

使用道具 举报

0

主题

1231

帖子

3709

积分

4K家园VIP

Rank: 9Rank: 9Rank: 9

积分
3709
发表于 2021-8-30 17:19:17 来自手机 | 显示全部楼层
高手啊
回复 支持 反对

使用道具 举报

0

主题

133

帖子

810

积分

新手上路

Rank: 1

积分
810
发表于 2021-8-30 17:21:24 | 显示全部楼层
感谢制作分享
回复 支持 反对

使用道具 举报

0

主题

601

帖子

2094

积分

注册会员

Rank: 2

积分
2094
发表于 2021-8-30 22:10:50 | 显示全部楼层
感谢楼主的分享
回复 支持 反对

使用道具 举报

您需要登录后才可以回帖 登录 | 立即注册

本版积分规则

精彩图文
Archiver|手机版|TAG|Sitemap|新帖|专题|联系我们:邮箱: 4kjia.com@gmail.com   

4k家园   ©2019