[4K电影] 车速过快 / Spree (2020) 4K高清版本下载/14.73GB

[复制链接]

872

主题

927

帖子

7970

积分

超级版主

Rank: 8Rank: 8

积分
7970
 楼主| 发表于 2021-8-26 21:41:54 | 显示全部楼层 |阅读模式
本帖最后由 最爱4K哟 于 2021-8-27 14:11 编辑

QQ图片20210826224158.png

◎译  名 车速过快
◎片  名 Spree
◎年  代 2020
◎产  地 美国
◎类  别 喜剧 / 惊悚
◎语  言 英语
◎上映日期 2020-01-24(圣丹斯电影节) / 2020-08-14(美国)
◎IMDb评分 5.9/10 from 6775 users
◎IMDb链接 https://www.imdb.com/title/tt11394332
◎豆瓣评分 5.5/10 from 572 users
◎豆瓣链接 https://movie.douban.com/subject/34907407/
◎片  长 93分钟
◎导  演 Eugene Kotlyarenko
◎编  剧 Eugene Kotlyarenko / Gene McHugh
◎主  演 乔·基瑞 Joe Keery
      萨西尔·扎玛塔 Sasheer Zamata
      大卫·阿奎特 David Arquette
      凯尔·穆尼 Kyle Mooney
      米莎·巴顿 Mischa Barton
      拉拉·肯特 Lala Kent
      约翰·德卢卡 John DeLuca
      杰萨琳·吉尔西格 Jessalyn Gilsig
      肖恩·艾弗里 Sean Avery
      Frankie Grande
      Joshua Ovalle
      Reatha Grey
      Caroline Hebert
      Sunny Kim
      Linas Phillips
      Randy Vasquez



◎简  介

  影片由尤金·科特亚伦科执导,《怪奇物语》演员乔·基瑞主演,他在片中扮演的是一个为了寻求刺激,在网上直播虐待乘客的网约车司机。
Video
ID : 1
Format : HEVC
Format/Info : High Efficiency Video Coding
Format profile : Main 10@L5@High
Codec ID : V_MPEGH/ISO/HEVC
Duration : 1 h 32 min
Bit rate : 20.3 Mb/s
Width : 3 832 pixels
Height : 2 152 pixels
Display aspect ratio : 16:9
Frame rate mode : Constant
Frame rate : 23.976 FPS
Color space : YUV
Chroma subsampling : 4:2:0
Bit depth : 10 bits
Bits/(Pixel*Frame) : 0.102
Stream size : 13.1 GiB (89%)
Language : English
Default : Yes
Forced : No
Color range : Limited
Color primaries : BT.709
Transfer characteristics : BT.709
Matrix coefficients : BT.709

Audio #1
ID : 2
ID in the original source medium : 4352 (0x1100)
Format : DTS XLL
Format/Info : Digital Theater Systems
Commercial name : DTS-HD Master Audio
Codec ID : A_DTS
Duration : 1 h 32 min
Bit rate mode : Variable
Bit rate : 2 125 kb/s
Channel(s) : 6 channels
Channel layout : C L R Ls Rs LFE
Sampling rate : 48.0 kHz
Frame rate : 93.750 FPS (512 SPF)
Bit depth : 16 bits
Compression mode : Lossless
Stream size : 1.37 GiB (9%)
Title : DTS-HD MA 5.1
Language : English
Default : Yes
Forced : No
Original source medium : Blu-ray

Audio #2
ID : 3
Format : AC-3
Format/Info : Audio Coding 3
Commercial name : Dolby Digital
Codec ID : A_AC3
Duration : 1 h 32 min
Bit rate mode : Constant
Bit rate : 384 kb/s
Channel(s) : 6 channels
Channel layout : L R C LFE Ls Rs
Sampling rate : 48.0 kHz
Frame rate : 31.250 FPS (1536 SPF)
Compression mode : Lossy
Stream size : 254 MiB (2%)
Title : DD 5.1
Language : English
Service kind : Complete Main
Default : No
Forced : No

Text #1
ID : 4
Format : UTF-8
Codec ID : S_TEXT/UTF8
Codec ID/Info : UTF-8 Plain Text
Duration : 1 h 28 min
Bit rate : 88 b/s
Count of elements : 1753
Stream size : 57.5 KiB (0%)
Title : (SDH)
Language : English
Default : Yes
Forced : No

Text #2
ID : 5
Format : UTF-8
Codec ID : S_TEXT/UTF8
Codec ID/Info : UTF-8 Plain Text
Duration : 1 h 27 min
Bit rate : 90 b/s
Count of elements : 1770
Stream size : 57.9 KiB (0%)
Language : Spanish
Default : No
Forced : No

Text #3
ID : 6
ID in the original source medium : 4608 (0x1200)
Format : PGS
Muxing mode : zlib
Codec ID : S_HDMV/PGS
Codec ID/Info : Picture based subtitle format used on BDs/HD-DVDs
Duration : 1 h 28 min
Bit rate : 43.9 kb/s
Count of elements : 2197
Stream size : 27.9 MiB (0%)
Title : English-PGS
Language : English
Default : No
Forced : No
Original source medium : Blu-ray

Text #4
ID : 7
ID in the original source medium : 4609 (0x1201)
Format : PGS
Muxing mode : zlib
Codec ID : S_HDMV/PGS
Codec ID/Info : Picture based subtitle format used on BDs/HD-DVDs
Duration : 1 h 27 min
Bit rate : 44.2 kb/s
Count of elements : 2083
Stream size : 27.6 MiB (0%)
Title : Spanish-PGS
Language : Spanish
Default : No
Forced : No
Original source medium : Blu-ray

Menu
00:00:00.000 : Chapter 01
00:10:37.053 : Chapter 02
00:14:24.905 : Chapter 03
00:23:16.812 : Chapter 04
00:28:20.532 : Chapter 05
00:31:57.248 : Chapter 06
00:41:34.200 : Chapter 07
00:55:45.884 : Chapter 08
01:02:08.808 : Chapter 09
01:04:03.464 : Chapter 10
01:13:40.541 : Chapter 11
01:21:16.204 : Chapter 12
迅雷下载资源速度为零,资源敏感和谐时,推荐使用qBittorrent等下载软件,有条件的推荐115更好的下载软件!

下载地址

游客,如果您要查看本帖隐藏内容请回复





上一篇:马丁·路德·金与联邦调查局 (2020) 4K高清版本下载/10.41GB
下一篇:度假伙伴 / Vacation Friends‎ (2021) 4K高清版本下载/16.33GB
回复

使用道具 举报

3

主题

1271

帖子

3837

积分

4K家园VIP

Rank: 9Rank: 9Rank: 9

积分
3837
发表于 2021-8-26 21:41:59 | 显示全部楼层
秀起来~
回复 支持 反对

使用道具 举报

0

主题

2

帖子

18

积分

新手上路

Rank: 1

积分
18
发表于 2021-8-26 22:01:48 | 显示全部楼层
没看过,看一下,
回复 支持 反对

使用道具 举报

51

主题

1450

帖子

4170

积分

4K家园VIP

Rank: 9Rank: 9Rank: 9

积分
4170
发表于 2021-8-27 20:09:56 来自手机 | 显示全部楼层
呵呵。。。
回复 支持 反对

使用道具 举报

2

主题

1670

帖子

4546

积分

4K家园VIP

Rank: 9Rank: 9Rank: 9

积分
4546
发表于 2021-8-27 20:26:56 | 显示全部楼层
纯粹路过,没任何兴趣,仅仅是看在老用户份上回复一下
回复 支持 反对

使用道具 举报

40

主题

1447

帖子

4103

积分

4K家园VIP

Rank: 9Rank: 9Rank: 9

积分
4103
发表于 2021-8-27 22:46:35 | 显示全部楼层
不错 支持一个了
回复 支持 反对

使用道具 举报

0

主题

6

帖子

28

积分

新手上路

Rank: 1

积分
28
发表于 2021-8-28 11:05:23 | 显示全部楼层
秀起来~
回复

使用道具 举报

1

主题

1315

帖子

3963

积分

4K家园VIP

Rank: 9Rank: 9Rank: 9

积分
3963
发表于 2021-8-29 14:46:44 | 显示全部楼层
为保住菊花,这个一定得回复!
回复 支持 反对

使用道具 举报

0

主题

138

帖子

843

积分

新手上路

Rank: 1

积分
843
发表于 2021-8-31 12:24:46 | 显示全部楼层
谢谢楼主精彩分享
回复 支持 反对

使用道具 举报

0

主题

16

帖子

45

积分

新手上路

Rank: 1

积分
45
发表于 2021-8-31 19:00:22 | 显示全部楼层

Where is Administration 4kjia.com ??

Where is moderator??
I'ts important.
Regards.
回复 支持 反对

使用道具 举报

您需要登录后才可以回帖 登录 | 立即注册

本版积分规则

精彩图文
Archiver|手机版|TAG|Sitemap|新帖|专题|联系我们:邮箱: 4kjia.com@gmail.com   

4k家园   ©2019