[4K电影] 尊重 / Respect (2021) 4K高清版本下载/25.68GB

[复制链接]

872

主题

927

帖子

7970

积分

超级版主

Rank: 8Rank: 8

积分
7970
 楼主| 发表于 2021-8-27 15:55:31 | 显示全部楼层 |阅读模式

QQ图片20210827155515.png

◎译  名 尊重/灵魂心声(台)
◎片  名 Respect
◎年  代 2021
◎产  地 美国
◎类  别 剧情 / 音乐 / 传记
◎语  言 英语
◎上映日期 2021-08-13(美国)
◎IMDb评分  7.0/10 from 1551 users
◎IMDb链接  https://www.imdb.com/title/tt2452150/
◎豆瓣评分 0/10 from 0 users
◎豆瓣链接 https://movie.douban.com/subject/30133744/
◎片  长 145分钟
◎导  演 丽莎·汤米 Liesl Tommy
◎编  剧 特雷西·斯科特·威尔逊 Tracey Scott Wilson / 卡莉·克里 Callie Khouri
◎主  演 詹妮弗·哈德森 Jennifer Hudson
      福里斯特·惠特克 Forest Whitaker
      奥德拉·麦克唐纳 Audra McDonald
      西康·塞布罗 Saycon Sengbloh
      海莉·基尔戈尔 Hailey Kilgore
      布兰达·妮科尔·穆勒 Brenda Nicole Moorer
      马龙·韦恩斯 Marlon Wayans
      马克·马龙 Marc Maron
      泰塔斯·伯吉斯 Tituss Burgess
      金伯利·斯科特 Kimberly Scott
      勒罗伊·麦克莱恩 Leroy McClain
      泰特·多诺万 Tate Donovan
      阿尔伯特·琼斯 Albert Jones
      博·谢尔 Beau Scheier
      迈克·沃特福德 Myk Watford
      玛丽·布莱姬 Mary J. Blige
      希瑟·海德利 Heather Headley
      约书亚·米克尔 Joshua Mikel
      扎克·斯特鲁姆 Zach Strum
      乔·奈泽维奇 Joe Knezevich
      肖恩·雷卡特尔 Shawn Ray Cartel
      布兰登·吉尔平 Brandon Gilpin
      施奎塔·詹姆斯 Shiquita James
      莫里斯·约翰逊 Maurice Johnson
      桃乐丝·麦卡锡 Doris McCarthy
      维多利亚·佩吉·沃特金斯 Victoria Paige Watkins
       Lodric D. Collins
       Demetrius B. Banks
       Melissa Lowe
      Rege Lewis Rege Lewis



◎简  介

  聚焦弗兰克林的崛起,她如何从在父亲的唱诗班开始歌唱的女孩,成为美国音乐史上极为重要的灵魂歌后。
Video
ID : 1
Format : HEVC
Format/Info : High Efficiency Video Coding
Format profile : Main 10@L5@High
Codec ID : V_MPEGH/ISO/HEVC
Duration : 2 h 24 min
Bit rate : 20.7 Mb/s
Width : 3 840 pixels
Height : 1 594 pixels
Display aspect ratio : 2.40:1
Frame rate mode : Constant
Frame rate : 23.976 FPS
Color space : YUV
Chroma subsampling : 4:2:0
Bit depth : 10 bits
Bits/(Pixel*Frame) : 0.141
Stream size : 21.0 GiB (97%)
Default : Yes
Forced : No
Color range : Limited
Color primaries : BT.709
Transfer characteristics : BT.709
Matrix coefficients : BT.709

Audio
ID : 2
Format : E-AC-3
Format/Info : Enhanced AC-3
Commercial name : Dolby Digital Plus
Codec ID : A_EAC3
Duration : 2 h 24 min
Bit rate mode : Constant
Bit rate : 640 kb/s
Channel(s) : 6 channels
Channel layout : L R C LFE Ls Rs
Sampling rate : 48.0 kHz
Frame rate : 31.250 FPS (1536 SPF)
Compression mode : Lossy
Stream size : 663 MiB (3%)
Language : English
Service kind : Complete Main
Default : Yes
Forced : No

Text #1
ID : 3
Format : UTF-8
Codec ID : S_TEXT/UTF8
Codec ID/Info : UTF-8 Plain Text
Duration : 2 h 23 min
Bit rate : 45 b/s
Count of elements : 1943
Stream size : 47.5 KiB (0%)
Title : English
Language : English
Default : No
Forced : No

Text #2
ID : 4
Format : UTF-8
Codec ID : S_TEXT/UTF8
Codec ID/Info : UTF-8 Plain Text
Duration : 2 h 24 min
Bit rate : 73 b/s
Count of elements : 2549
Stream size : 77.9 KiB (0%)
Title : English [SDH]
Language : English
Default : No
Forced : No

Text #3
ID : 5
Format : UTF-8
Codec ID : S_TEXT/UTF8
Codec ID/Info : UTF-8 Plain Text
Duration : 2 h 23 min
Bit rate : 38 b/s
Count of elements : 1537
Stream size : 40.8 KiB (0%)
Title : French
Language : French
Default : No
Forced : No

Text #4
ID : 6
Format : UTF-8
Codec ID : S_TEXT/UTF8
Codec ID/Info : UTF-8 Plain Text
Duration : 2 h 17 min
Bit rate : 44 b/s
Count of elements : 1581
Stream size : 44.5 KiB (0%)
Title : Spanish
Language : Spanish
Default : No
Forced : No
迅雷下载资源速度为零,资源敏感和谐时,推荐使用qBittorrent等下载软件,有条件的推荐115更好的下载软件!


游客,如果您要查看本帖隐藏内容请回复

游客,如果您要查看本帖隐藏内容请回复







上一篇:度假伙伴 / Vacation Friends‎ (2021) 4K高清版本下载/16.33GB
下一篇:Gutterbee (2019) 4K高清版本下载/9.22GB
回复

使用道具 举报

1

主题

1318

帖子

3806

积分

4K家园VIP

Rank: 9Rank: 9Rank: 9

积分
3806
发表于 2021-8-27 15:55:36 | 显示全部楼层
学习下
回复 支持 反对

使用道具 举报

37

主题

1468

帖子

4182

积分

4K家园VIP

Rank: 9Rank: 9Rank: 9

积分
4182
发表于 2021-8-28 10:38:51 来自手机 | 显示全部楼层
支持楼主,用户楼主,楼主英明呀!!!
回复 支持 反对

使用道具 举报

0

主题

138

帖子

843

积分

新手上路

Rank: 1

积分
843
发表于 2021-8-28 14:37:24 | 显示全部楼层
感谢楼主分享影片
回复 支持 反对

使用道具 举报

4

主题

1372

帖子

3960

积分

4K家园VIP

Rank: 9Rank: 9Rank: 9

积分
3960
发表于 2021-8-29 14:24:27 | 显示全部楼层
路过
回复 支持 反对

使用道具 举报

0

主题

138

帖子

843

积分

新手上路

Rank: 1

积分
843
发表于 2021-8-29 14:37:10 | 显示全部楼层
论坛不能没有像楼主这样的人才
回复 支持 反对

使用道具 举报

5

主题

1569

帖子

4327

积分

中级会员

Rank: 4

积分
4327
发表于 2021-8-30 02:56:38 | 显示全部楼层
我了个去,顶了
回复 支持 反对

使用道具 举报

0

主题

607

帖子

2118

积分

注册会员

Rank: 2

积分
2118
发表于 2021-8-30 22:05:54 | 显示全部楼层
感谢楼主的分享
回复 支持 反对

使用道具 举报

0

主题

6

帖子

42

积分

新手上路

Rank: 1

积分
42
发表于 2021-8-31 05:04:15 | 显示全部楼层

Hello

Hello everybody! Forgive me my english please. Can you tell me how can I quickly contact with forum administration?
回复 支持 反对

使用道具 举报

3

主题

1709

帖子

4675

积分

中级会员

Rank: 4

积分
4675
发表于 2021-8-31 05:15:11 | 显示全部楼层
高手云集 果断围观
回复 支持 反对

使用道具 举报

您需要登录后才可以回帖 登录 | 立即注册

本版积分规则

精彩图文
Archiver|手机版|TAG|Sitemap|新帖|专题|联系我们:邮箱: 4kjia.com@gmail.com   

4k家园   ©2019